找回密码

蓝光电影网

查看: 551|回复: 1

[惊悚] 后窗 Rear.Window.1954.INTERNAL.1080p.BluRay.x264-CLASSiC 10.23GB

[复制链接]
蓝光币
382
发表于 2020-1-25 12:35:53 | 显示全部楼层 |阅读模式
后窗 Rear.Window.1954.INTERNAL.1080p.BluRay.x264-CLASSiC 10.23GB-1.png

译  名 后窗 / Alfred Hitchcock's Rear Window / Fenêtre sur cour
片  名 Rear Window
年  代 1954
产  地 美国
类  别 悬疑 / 惊悚
语  言 英语
上映日期 1954-08-01(美国)
IMDb评分  8.4/10 from 414695 users
IMDb链接  https://www.imdb.com/title/tt0047396
豆瓣评分 8.5/10 from 106028 users
豆瓣链接 https://movie.douban.com/subject/1299080/
片  长 112 分钟
导  演 阿尔弗雷德·希区柯克 Alfred Hitchcock
编  剧 约翰·迈克尔·海耶斯 John Michael Hayes / 康奈尔·伍尔里奇 Cornell Woolrich
主  演 詹姆斯·斯图尔特 James Stewart
       格蕾丝·凯利 Grace Kelly
       温戴尔·柯瑞 Wendell Corey
       瑟尔玛·瑞特 Thelma Ritter
       雷蒙德·布尔 Raymond Burr
       朱迪思·伊夫林 Judith Evelyn
       罗斯·巴格达萨里安 Ross Bagdasarian
       乔金·达西 Georgine Darcy
       萨拉·伯纳 Sara Berner
       弗兰克·卡迪 Frank Cady
       杰丝琳·法克斯 Jesslyn Fax
       艾琳·温斯顿 Irene Winston
       哈维斯·达文波特 Havis Davenport
       本尼·巴莱特 Benny Bartlett
       马拉·英格丽什 Marla English
       贝丝·弗劳尔斯 Bess Flowers
       阿特·吉尔摩 Art Gilmore
       弗莱德·格兰姆 Fred Graham
       凯丝琳·格兰特 Kathryn Grant
       阿尔弗雷德·希区柯克 Alfred Hitchcock
       迈克·马奥尼 Mike Mahoney
       杰克·斯托尼 Jack Stoney
       吉格·杨 Gig Young
       Rand Harper
       Jerry Antes
       Nick Borgani
       Iphigenie Castiglioni
       Don Dunning
       Harry Landers
       Jonni Paris
       Eddie Parker
       Robert Sherman
       Dick Simmons
       Ralph Smiley
       Anthony Warde


标  签 希区柯克 | 悬疑 | 美国 | 典范 | 惊悚 | 美国电影 | 1954 | AlfredHitchcock

简  介  

  摄影师杰弗里斯(詹姆斯·斯图尔特 饰)因站在赛车道中心拍摄,断了左腿,只得在家静养七周。除了保险公司的护士斯特拉(西尔玛·里特 饰)和女友丽莎·卡罗尔·弗里蒙特(格雷斯·凯利 饰)逐日前来顾问,百无聊赖的杰弗里斯只能在窗前闲看邻人们的平常生活以打发时候。劈面公寓的二楼住着人造珠宝倾销员拉尔斯·托瓦尔德(雷蒙德·伯尔 饰)及妻子安娜(艾琳·温斯顿 饰),夫妻之间争持不竭。一个雨夜,杰弗里斯看到拉尔斯提着箱子外出数次。越日,杰弗里斯又看到拉尔斯用报纸包裹一把锯和一把刀。杰弗里斯起了狐疑,他思疑拉尔斯杀戮了安娜并分尸抛弃。但是,杰弗里斯并未目击案发进程,也未见到尸身。那末真相究竟若何呢?杰弗里斯的猜测只是他的臆想吗?为了证实他的猜测,杰弗里斯要若何寻觅证据呢?

获奖情况  

  第27届奥斯卡金像奖(1955)
  最好导演(提名) 阿尔弗雷德·希区柯克
  最好编剧(提名) 约翰·迈克尔·海耶斯
  彩色片最好摄影(提名) 罗伯特·伯克斯
  最好录音(提名) 洛伦·L·里德

  第15届威尼斯电影节(1954)
  主比赛单元 金狮奖 (提名) 阿尔弗雷德·希区柯克
  1. Video
  2. ID                                       : 1
  3. Format                                   : AVC
  4. Format/Info                              : Advanced Video Codec
  5. Format profile                           : [email protected]
  6. Format settings                          : CABAC / 4 Ref Frames
  7. Format settings, CABAC                   : Yes
  8. Format settings, Reference frames        : 4 frames
  9. Codec ID                                 : V_MPEG4/ISO/AVC
  10. Duration                                 : 1 h 52 min
  11. Bit rate                                 : 11.1 Mb/s
  12. Width                                    : 1 776 pixels
  13. Height                                   : 1 080 pixels
  14. Display aspect ratio                     : 16:10
  15. Frame rate mode                          : Constant
  16. Frame rate                               : 23.976 (24000/1001) FPS
  17. Color space                              : YUV
  18. Chroma subsampling                       : 4:2:0
  19. Bit depth                                : 8 bits
  20. Scan type                                : Progressive
  21. Bits/(Pixel*Frame)                       : 0.241
  22. Stream size                              : 8.72 GiB (86%)
  23. Writing library                          : x264 core 159 r2991 1771b55
  24. Encoding settings                        : cabac=1 / ref=4 / deblock=1:0:0 / analyse=0x3:0x133 / me=tesa / subme=10 / psy=1 / psy_rd=1.00:0.00 / mixed_ref=1 / me_range=24 / chroma_me=1 / trellis=2 / 8x8dct=1 / cqm=0 / deadzone=21,11 / fast_pskip=0 / chroma_qp_offset=-2 / threads=24 / lookahead_threads=4 / sliced_threads=0 / nr=0 / decimate=1 / interlaced=0 / bluray_compat=0 / constrained_intra=0 / bframes=8 / b_pyramid=0 / b_adapt=2 / b_bias=0 / direct=3 / weightb=1 / open_gop=0 / weightp=2 / keyint=240 / keyint_min=24 / scenecut=40 / intra_refresh=0 / rc_lookahead=60 / rc=2pass / mbtree=1 / bitrate=11106 / ratetol=1.0 / qcomp=0.60 / qpmin=0 / qpmax=69 / qpstep=4 / cplxblur=20.0 / qblur=0.5 / vbv_maxrate=78125 / vbv_bufsize=62500 / nal_hrd=none / filler=0 / ip_ratio=1.40 / aq=1:1.00
  25. Default                                  : Yes
  26. Forced                                   : No
  27. Color range                              : Limited
  28. Color primaries                          : BT.709
  29. Transfer characteristics                 : BT.709
  30. Matrix coefficients                      : BT.709

  31. Audio
  32. ID                                       : 2
  33. Format                                   : DTS XLL
  34. Format/Info                              : Digital Theater Systems
  35. Commercial name                          : DTS-HD Master Audio
  36. Codec ID                                 : A_DTS
  37. Duration                                 : 1 h 52 min
  38. Bit rate mode                            : Variable
  39. Bit rate                                 : 1 771 kb/s
  40. Channel(s)                               : 2 channels
  41. Channel layout                           : L R
  42. Sampling rate                            : 48.0 kHz
  43. Frame rate                               : 93.750 FPS (512 SPF)
  44. Bit depth                                : 24 bits
  45. Compression mode                         : Lossless
  46. Stream size                              : 1.39 GiB (14%)
  47. Language                                 : English
  48. Default                                  : Yes
  49. Forced                                   : No

  50. Menu
  51. 00:00:00.000                             : en:Chapter 01
  52. 00:01:36.388                             : en:Chapter 02
  53. 00:08:29.384                             : en:Chapter 03
  54. 00:15:37.895                             : en:Chapter 04
  55. 00:21:26.285                             : en:Chapter 05
  56. 00:27:13.423                             : en:Chapter 06
  57. 00:32:01.211                             : en:Chapter 07
  58. 00:36:38.863                             : en:Chapter 08
  59. 00:43:05.041                             : en:Chapter 09
  60. 00:53:40.426                             : en:Chapter 10
  61. 01:00:52.566                             : en:Chapter 11
  62. 01:12:25.508                             : en:Chapter 12
  63. 01:18:46.221                             : en:Chapter 13
  64. 01:25:06.893                             : en:Chapter 14
  65. 01:37:26.299                             : en:Chapter 15
  66. 01:44:56.081                             : en:Chapter 16
  67. 01:50:35.921                             : en:Chapter 17
复制代码

后窗 Rear.Window.1954.INTERNAL.1080p.BluRay.x264-CLASSiC 10.23GB-2.png






回复

使用道具 举报

蓝光币
80
发表于 2020-1-26 20:41:36 | 显示全部楼层
楼主发贴辛苦了,谢谢楼主分享!我觉得蓝光电影网是注册对了!
回复 支持 反对

使用道具 举报

懒得打字嘛,点击右侧快捷回复 【右侧内容,后台自定义】
您需要登录后才可以回帖 登录 | 立即加入

本版积分规则

Archiver|小黑屋| 蓝光电影网 |网站地图

Copyright © 2021 Comsenz Inc. Powered by 蓝光电影网

蓝光电影网

本站内容由用户自主分享和转载自互联网,转载目的在于传递更多信息,并不代表本网赞同其观点和对其真实性负责。

如有侵权、违反国家法律政策行为,请联系我们,我们会第一时间及时清除和处理!

举报反馈邮箱:[email protected]

快速回复 返回顶部 返回列表