找回密码

蓝光电影网

查看: 400|回复: 4

[喜剧] 怪尸案/哈里的纠纷 The.Trouble.With.Harry.1955.INTERNAL.1080p.BluRay.x264-CLASSiC 8.86GB

[复制链接]
蓝光币
382
发表于 2020-1-25 12:36:56 | 显示全部楼层 |阅读模式
怪尸案/哈里的胶葛 The.Trouble.With.Harry.1955.INTERNAL.1080p.BluRay.x264-CLASSiC 8.86GB-1.png

译  名 怪尸案 / 哈里的胶葛 / 哈里的麻烦 / 怪尸记
片  名 The Trouble with Harry
年  代 1955
产  地 美国
类  别 笑剧 / 悬疑
语  言 英语
上映日期 1955-10-03(美国)
IMDb评分  7.1/10 from 31420 users
IMDb链接  https://www.imdb.com/title/tt0048750
豆瓣评分 7.5/10 from 7999 users
豆瓣链接 https://movie.douban.com/subject/1301232/
片  长 99 分钟
导  演 阿尔弗雷德·希区柯克 Alfred Hitchcock
编  剧 约翰·迈克尔·海耶斯 John Michael Hayes / Jack Trevor Story
主  演 埃德蒙·戈温 Edmund Gwenn
       约翰·福赛思 John Forsythe
       米尔翠德·纳特威克 Mildred Natwick
       米尔德丽德·丹诺克 Mildred Dunnock
       罗亚尔·达诺 Royal Dano
       德怀特·马费尔德 Dwight Marfield
       雪莉·麦克雷恩 Shirley MacLaine
       阿尔弗雷德·希区柯克 Alfred Hitchcock
       Jerry Mathers
       Parker Fennelly
       Barry Macollum
       Ernest Curt Bach
       Philip Truex
       Leslie Woolf


标  签 希区柯克 | 悬疑 | 美国 | 笑剧 | AlfredHitchcock | 1955 | 阿尔弗雷德·希区柯克 | 美国电影

简  介  

  小男孩哈尼在森林中安步时,发现了他的父亲——哈利的尸身。分歧于一般谋杀案,此次由于多人都自以为凶手而令案情加倍扑朔迷离。亚伯特船主(埃德蒙?格温 Edmund Gwenn 饰)以为是他在狩猎射击时误杀了哈利;村子里的老童贞葛雷布礼蜜斯(麦尔翠德?耐维克 Mildred Natwick 饰)以为是由于她为了保住自己的名声而用一只鞋子打了哈利的头部而形成他的灭亡;与哈利豪情不睦的妻子珍妮佛(雪莉?麦克雷恩 Shirley MacLaine 饰)则以为是她由于抵挡哈利的性爱用装牛奶的罐子敲向他的脑壳而形成了他的灭亡。真相最初能否内情毕露?

获奖情况  

  第12届金球奖(1955)
  电影类 年度女新星 雪莉·麦克雷恩
  1. Video
  2. ID                                       : 1
  3. Format                                   : AVC
  4. Format/Info                              : Advanced Video Codec
  5. Format profile                           : [email protected]
  6. Format settings                          : CABAC / 4 Ref Frames
  7. Format settings, CABAC                   : Yes
  8. Format settings, Reference frames        : 4 frames
  9. Codec ID                                 : V_MPEG4/ISO/AVC
  10. Duration                                 : 1 h 39 min
  11. Bit rate                                 : 10.8 Mb/s
  12. Width                                    : 1 920 pixels
  13. Height                                   : 1 040 pixels
  14. Display aspect ratio                     : 1.85:1
  15. Frame rate mode                          : Constant
  16. Frame rate                               : 23.976 (24000/1001) FPS
  17. Color space                              : YUV
  18. Chroma subsampling                       : 4:2:0
  19. Bit depth                                : 8 bits
  20. Scan type                                : Progressive
  21. Bits/(Pixel*Frame)                       : 0.225
  22. Stream size                              : 7.49 GiB (86%)
  23. Writing library                          : x264 core 159 r2991 1771b55
  24. Encoding settings                        : cabac=1 / ref=4 / deblock=1:0:0 / analyse=0x3:0x133 / me=tesa / subme=10 / psy=1 / psy_rd=1.00:0.00 / mixed_ref=1 / me_range=24 / chroma_me=1 / trellis=2 / 8x8dct=1 / cqm=0 / deadzone=21,11 / fast_pskip=0 / chroma_qp_offset=-2 / threads=24 / lookahead_threads=4 / sliced_threads=0 / nr=0 / decimate=1 / interlaced=0 / bluray_compat=0 / constrained_intra=0 / bframes=8 / b_pyramid=0 / b_adapt=2 / b_bias=0 / direct=3 / weightb=1 / open_gop=0 / weightp=2 / keyint=240 / keyint_min=24 / scenecut=40 / intra_refresh=0 / rc_lookahead=60 / rc=2pass / mbtree=1 / bitrate=10793 / ratetol=1.0 / qcomp=0.60 / qpmin=0 / qpmax=69 / qpstep=4 / cplxblur=20.0 / qblur=0.5 / vbv_maxrate=78125 / vbv_bufsize=62500 / nal_hrd=none / filler=0 / ip_ratio=1.40 / aq=1:1.00
  25. Default                                  : Yes
  26. Forced                                   : No
  27. Color range                              : Limited
  28. Color primaries                          : BT.709
  29. Transfer characteristics                 : BT.709
  30. Matrix coefficients                      : BT.709

  31. Audio
  32. ID                                       : 2
  33. Format                                   : DTS XLL
  34. Format/Info                              : Digital Theater Systems
  35. Commercial name                          : DTS-HD Master Audio
  36. Codec ID                                 : A_DTS
  37. Duration                                 : 1 h 39 min
  38. Bit rate mode                            : Variable
  39. Bit rate                                 : 1 780 kb/s
  40. Channel(s)                               : 2 channels
  41. Channel layout                           : L R
  42. Sampling rate                            : 48.0 kHz
  43. Frame rate                               : 93.750 FPS (512 SPF)
  44. Bit depth                                : 24 bits
  45. Compression mode                         : Lossless
  46. Stream size                              : 1.24 GiB (14%)
  47. Language                                 : English
  48. Default                                  : Yes
  49. Forced                                   : No

  50. Menu
  51. 00:00:00.000                             : en:Chapter 01
  52. 00:01:52.070                             : en:Chapter 02
  53. 00:05:15.440                             : en:Chapter 03
  54. 00:14:06.220                             : en:Chapter 04
  55. 00:20:47.496                             : en:Chapter 05
  56. 00:24:20.084                             : en:Chapter 06
  57. 00:38:01.696                             : en:Chapter 07
  58. 00:43:15.051                             : en:Chapter 08
  59. 00:47:21.630                             : en:Chapter 09
  60. 00:54:20.883                             : en:Chapter 10
  61. 00:56:49.865                             : en:Chapter 11
  62. 01:02:55.063                             : en:Chapter 12
  63. 01:10:03.658                             : en:Chapter 13
  64. 01:14:28.005                             : en:Chapter 14
  65. 01:21:21.835                             : en:Chapter 15
  66. 01:26:25.972                             : en:Chapter 16
  67. 01:34:42.760                             : en:Chapter 17
  68. 01:37:19.584                             : en:Chapter 18
复制代码

怪尸案/哈里的胶葛 The.Trouble.With.Harry.1955.INTERNAL.1080p.BluRay.x264-CLASSiC 8.86GB-2.png






回复

使用道具 举报

蓝光币
335
发表于 2020-5-21 08:32:08 | 显示全部楼层
楼主发贴辛苦了,谢谢楼主分享!我觉得蓝光电影网是注册对了!
回复 支持 反对

使用道具 举报

懒得打字嘛,点击右侧快捷回复 【右侧内容,后台自定义】
您需要登录后才可以回帖 登录 | 立即加入

本版积分规则

Archiver|小黑屋| 蓝光电影网 |网站地图

Copyright © 2021 Comsenz Inc. Powered by 蓝光电影网

蓝光电影网

本站内容由用户自主分享和转载自互联网,转载目的在于传递更多信息,并不代表本网赞同其观点和对其真实性负责。

如有侵权、违反国家法律政策行为,请联系我们,我们会第一时间及时清除和处理!

举报反馈邮箱:[email protected]

快速回复 返回顶部 返回列表