找回密码

蓝光电影网

查看: 833|回复: 1

[剧情] 睡梦医生 Doctor.Sleep.2019.DC.1080p.BluRay.x264.DTS-HD.MA.7.1-FGT 15.27GB

[复制链接]
蓝光币
382
发表于 2020-1-25 12:39:35 | 显示全部楼层 |阅读模式
睡梦医生 Doctor.Sleep.2019.DC.1080p.BluRay.x264.DTS-HD.MA.7.1-FGT 15.27GB-1.png

译  名 睡梦医生 / Dr. Sleep / 《闪灵》续集 / 安息医生(台) / 就寝医师 / 就寝医生 / 长逝医生
片  名 Doctor Sleep
年  代 2019
产  地 美国 / 英国
类  别 剧情 / 惊悚 / 可骇 / 奇异
语  言 英语
上映日期 2019-10-30(法国) / 2019-10-31(英国) / 2019-11-08(美国)
IMDb评分  7.5/10 from 50008 users
IMDb链接  https://www.imdb.com/title/tt5606664
豆瓣评分 6.8/10 from 8282 users
豆瓣链接 https://movie.douban.com/subject/25932065/
片  长 151分钟
导  演 迈克·弗拉纳根 Mike Flanagan
编  剧 斯蒂芬·金 Stephen King / 迈克·弗拉纳根 Mike Flanagan
主  演 伊万·麦克格雷格 Ewan McGregor
       丽贝卡·弗格森 Rebecca Ferguson
       凯丽·卡伦 Kyliegh Curran
       雅各布·特伦布莱 Jacob Tremblay
       卡雷尔·斯特鲁基 Carel Struycken
       丹尼·劳埃德 Danny Lloyd
       艾米丽·阿琳·林德 Emily Alyn Lind
       克利夫·柯蒂斯 Cliff Curtis
       扎恩·迈克拉农 Zahn McClarnon
       切尔西·塔尔玛琪 Chelsea Talmadge
       艾丽克斯·埃索 Alex Essoe
       布鲁斯·格林伍德 Bruce Greenwood
       乔赛琳·唐娜休 Jocelin Donahue
       卡尔·卢波利 Carl Lumbly
       维奥莱特·麦格劳 Violet McGraw
       凯瑟琳·帕克 Catherine Parker
       罗伯特·朗斯特里特 Robert Longstreet
       赛琳娜·安杜兹 Selena Anduze
       尼古拉斯·普罗约尔 Nicholas Pryor
       贝瑟妮·安妮·林德 Bethany Anne Lind
       查尔斯·格林 Charles Green
       扎克瑞·莫莫 Zackary Momoh
       杰森·戴维斯 Jason Davis
       胡安·贾斯帕 Juan Gaspard
       路易斯·桑切斯 Luis Sanchez


标  签 可骇 | 惊悚 | 闪灵续集 | 美国 | 灵异 | 2019 | 小说改编 | 奇异

简  介  

  《闪灵》续集《就寝医师》(Doctor Sleep)北美定档2020年1月24日,仍然按照斯蒂芬·金的同名小说改编,迈克·弗拉纳甘(《杰罗德游戏》《灭亡占卜2》《梦醒之前》)执导。本片聚焦闪灵里的儿子Danny Torrance,履历了Overlook Hotel里可怕的童年时光后,他已经流浪了几十年,渴望摆脱父亲的失望、酒精、暴力等特质,终极假寓在新罕布什尔州的一个小镇上,这是一个支持他的AA制社区,他在一野生老院找到工作,在那边他残余的“闪灵”之力为病笃之人供给了相当重要的终极抚慰。在一只要预知才能的猫的帮助下,他成为了“就寝医师”。2001年女婴Abra Stone诞生,她逐步起头展现超自然之力,似乎猜测到了911事务。她缓慢而无意地与Danny建立起心灵感应的纽带,随着她的长大,气力也比Danny的加倍强大,Danny被重新激起他心中的恶魔,并呼唤他为Abra的灵魂和保存战役。
  弗拉纳甘重写剧本,此前由Akiva Goldsman改编。
  1. Video
  2. ID                                       : 1
  3. Format                                   : AVC
  4. Format/Info                              : Advanced Video Codec
  5. Format profile                           : [email protected]
  6. Format settings                          : CABAC / 4 Ref Frames
  7. Format settings, CABAC                   : Yes
  8. Format settings, Reference frames        : 4 frames
  9. Codec ID                                 : V_MPEG4/ISO/AVC
  10. Duration                                 : 3 h 0 min
  11. Bit rate                                 : 8 030 kb/s
  12. Width                                    : 1 920 pixels
  13. Height                                   : 1 040 pixels
  14. Display aspect ratio                     : 1.85:1
  15. Frame rate mode                          : Constant
  16. Frame rate                               : 23.976 (24000/1001) FPS
  17. Color space                              : YUV
  18. Chroma subsampling                       : 4:2:0
  19. Bit depth                                : 8 bits
  20. Scan type                                : Progressive
  21. Bits/(Pixel*Frame)                       : 0.168
  22. Stream size                              : 10.1 GiB (66%)
  23. Title                                    : Doctor.Sleep.2019.DC.1080p.BluRay.x264.DTS-HD.MA.7.1-FGT
  24. Writing library                          : x264 core 157 r2969 d4099dd
  25. Encoding settings                        : cabac=1 / ref=4 / deblock=1:0:0 / analyse=0x3:0x113 / me=umh / subme=8 / psy=1 / psy_rd=1.00:0.00 / mixed_ref=1 / me_range=16 / chroma_me=1 / trellis=1 / 8x8dct=1 / cqm=0 / deadzone=21,11 / fast_pskip=1 / chroma_qp_offset=-2 / threads=16 / lookahead_threads=2 / sliced_threads=0 / nr=0 / decimate=1 / interlaced=0 / bluray_compat=0 / constrained_intra=0 / bframes=3 / b_pyramid=2 / b_adapt=2 / b_bias=0 / direct=3 / weightb=1 / open_gop=0 / weightp=2 / keyint=240 / keyint_min=23 / scenecut=40 / intra_refresh=0 / rc_lookahead=50 / rc=2pass / mbtree=1 / bitrate=8030 / ratetol=1.0 / qcomp=0.60 / qpmin=0 / qpmax=69 / qpstep=4 / cplxblur=20.0 / qblur=0.5 / ip_ratio=1.40 / aq=1:1.00
  26. Language                                 : English
  27. Default                                  : Yes
  28. Forced                                   : No

  29. Audio
  30. ID                                       : 2
  31. Format                                   : DTS XLL
  32. Format/Info                              : Digital Theater Systems
  33. Commercial name                          : DTS-HD Master Audio
  34. Codec ID                                 : A_DTS
  35. Duration                                 : 3 h 0 min
  36. Bit rate mode                            : Variable
  37. Bit rate                                 : 4 092 kb/s
  38. Channel(s)                               : 8 channels
  39. Channel layout                           : C L R LFE Lb Rb Lss Rss
  40. Sampling rate                            : 48.0 kHz
  41. Frame rate                               : 93.750 FPS (512 SPF)
  42. Bit depth                                : 24 bits
  43. Compression mode                         : Lossless
  44. Stream size                              : 5.15 GiB (34%)
  45. Title                                    : Doctor.Sleep.2019.DC.1080p.BluRay.x264.DTS-HD.MA.7.1-FGT
  46. Language                                 : English
  47. Default                                  : Yes
  48. Forced                                   : No

  49. Text #1
  50. ID                                       : 3
  51. Format                                   : UTF-8
  52. Codec ID                                 : S_TEXT/UTF8
  53. Codec ID/Info                            : UTF-8 Plain Text
  54. Duration                                 : 2 h 53 min
  55. Bit rate                                 : 38 b/s
  56. Count of elements                        : 1971
  57. Stream size                              : 49.1 KiB (0%)
  58. Title                                    : English-SRT
  59. Language                                 : English
  60. Default                                  : Yes
  61. Forced                                   : No

  62. Text #2
  63. ID                                       : 4
  64. Format                                   : PGS
  65. Muxing mode                              : zlib
  66. Codec ID                                 : S_HDMV/PGS
  67. Codec ID/Info                            : Picture based subtitle format used on BDs/HD-DVDs
  68. Duration                                 : 2 h 54 min
  69. Bit rate                                 : 28.4 kb/s
  70. Count of elements                        : 4686
  71. Stream size                              : 35.6 MiB (0%)
  72. Title                                    : English-PGS
  73. Language                                 : English
  74. Default                                  : No
  75. Forced                                   : No

  76. Menu
  77. 00:00:00.000                             : :Chapter 01
  78. 00:08:29.300                             : :Chapter 02
  79. 00:16:39.624                             : :Chapter 03
  80. 00:28:01.638                             : :Chapter 04
  81. 00:36:45.453                             : :Chapter 05
  82. 00:44:42.763                             : :Chapter 06
  83. 00:53:24.368                             : :Chapter 07
  84. 01:03:41.484                             : :Chapter 08
  85. 01:13:39.457                             : :Chapter 09
  86. 01:22:05.963                             : :Chapter 10
  87. 01:28:56.331                             : :Chapter 11
  88. 01:37:13.244                             : :Chapter 12
  89. 01:46:31.594                             : :Chapter 13
  90. 01:55:11.530                             : :Chapter 14
  91. 02:06:20.323                             : :Chapter 15
  92. 02:14:58.590                             : :Chapter 16
  93. 02:21:33.402                             : :Chapter 17
  94. 02:31:58.359                             : :Chapter 18
  95. 02:42:26.403                             : :Chapter 19
  96. 02:54:07.437                             : :Chapter 20
复制代码

睡梦医生 Doctor.Sleep.2019.DC.1080p.BluRay.x264.DTS-HD.MA.7.1-FGT 15.27GB-2.png 睡梦医生 Doctor.Sleep.2019.DC.1080p.BluRay.x264.DTS-HD.MA.7.1-FGT 15.27GB-3.png 睡梦医生 Doctor.Sleep.2019.DC.1080p.BluRay.x264.DTS-HD.MA.7.1-FGT 15.27GB-4.png






回复

使用道具 举报

蓝光币
115
发表于 2020-1-25 19:04:29 | 显示全部楼层
楼主发贴辛苦了,谢谢楼主分享!我觉得蓝光电影网是注册对了!
回复 支持 反对

使用道具 举报

懒得打字嘛,点击右侧快捷回复 【右侧内容,后台自定义】
您需要登录后才可以回帖 登录 | 立即加入

本版积分规则

Archiver|小黑屋| 蓝光电影网 |网站地图

Copyright © 2021 Comsenz Inc. Powered by 蓝光电影网

蓝光电影网

本站内容由用户自主分享和转载自互联网,转载目的在于传递更多信息,并不代表本网赞同其观点和对其真实性负责。

如有侵权、违反国家法律政策行为,请联系我们,我们会第一时间及时清除和处理!

举报反馈邮箱:[email protected]

快速回复 返回顶部 返回列表