找回密码

蓝光电影网

查看: 2951|回复: 2

[剧情] 圣文森的男孩们/圣文生男孩 The.Boys.Of.St.Vincent.1992.1080p.AMZN.WEBRip.DDP2.0.x264-TEPES 3.62GB

[复制链接]
蓝光币
426
发表于 2020-1-25 14:04:10 | 显示全部楼层 |阅读模式
圣文森的男孩们/圣文生男孩 The.Boys.Of.St.Vincent.1992.1080p.AMZN.WEBRip.DDP2.0.x264-TEPES 3.62GB-1.png

译  名 圣文森的男孩们 / 圣文生男孩 / 文森特大街的男孩
片  名 The Boys of St. Vincent
年  代 1992
产  地 加拿大
类  别 剧情
语  言 英语
上映日期 1992-12-06(加拿大)
IMDb评分  7.6/10 from 1503 users
IMDb链接  https://www.imdb.com/title/tt0106473
豆瓣评分 7.4/10 from 138 users
豆瓣链接 https://movie.douban.com/subject/1862927/
片  长 93分钟
导  演 John N. Smith
编  剧 Des Walsh / John N. Smith / Sam Grana
主  演 亨利·科泽尼 Henry Czerny
       Johnny Morina
       Brian Dooley
       Philip Dinn
       Brian Dodd
       Ashley Billard
       Jeremy Keefe
       Jonathan Lewis
       Michael Wade
       Greg Thomey
       阿莱恩·古勒姆 Alain Goulem
       艾丹·迪瓦恩 Aidan Devine
       Sean Tataryn
       David Graham
       Daniel Pilon
       蒂龙·本斯金 Tyrone Benskin
       简·惠勒 Jane Wheeler


标  签 儿童 | 圣文生男孩 | 同性 | 同性恋 | 正太 | 宗教 | gay | 电影

简  介  

  这部电影按照实在事务改编,报告了加拿大的圣文森特天主教孤儿院,教会神父对十岁的凯文和其他孩子们停止性凌虐的故事。这个事务浮出水面后警方起头停止观察,丑闻才得以公布于众,而当地宗教和政治团体却始终连结沉默。
  1. Video
  2. ID                                       : 1
  3. Format                                   : AVC
  4. Format/Info                              : Advanced Video Codec
  5. Format profile                           : [email protected]
  6. Format settings                          : CABAC / 4 Ref Frames
  7. Format settings, CABAC                   : Yes
  8. Format settings, Reference frames        : 4 frames
  9. Codec ID                                 : V_MPEG4/ISO/AVC
  10. Duration                                 : 1 h 32 min
  11. Bit rate mode                            : Constant
  12. Bit rate                                 : 5 366 kb/s
  13. Nominal bit rate                         : 10 000 kb/s
  14. Width                                    : 1 440 pixels
  15. Height                                   : 1 080 pixels
  16. Display aspect ratio                     : 4:3
  17. Frame rate mode                          : Constant
  18. Frame rate                               : 23.976 (24000/1001) FPS
  19. Color space                              : YUV
  20. Chroma subsampling                       : 4:2:0
  21. Bit depth                                : 8 bits
  22. Scan type                                : Progressive
  23. Bits/(Pixel*Frame)                       : 0.144
  24. Stream size                              : 3.47 GiB (96%)
  25. Default                                  : Yes
  26. Forced                                   : No
  27. Color range                              : Limited
  28. Color primaries                          : BT.709
  29. Transfer characteristics                 : BT.709
  30. Matrix coefficients                      : BT.709

  31. Audio
  32. ID                                       : 2
  33. Format                                   : E-AC-3
  34. Format/Info                              : Enhanced AC-3
  35. Commercial name                          : Dolby Digital Plus
  36. Codec ID                                 : A_EAC3
  37. Duration                                 : 1 h 32 min
  38. Bit rate mode                            : Constant
  39. Bit rate                                 : 224 kb/s
  40. Channel(s)                               : 2 channels
  41. Channel layout                           : L R
  42. Sampling rate                            : 48.0 kHz
  43. Frame rate                               : 31.250 FPS (1536 SPF)
  44. Compression mode                         : Lossy
  45. Stream size                              : 148 MiB (4%)
  46. Language                                 : English
  47. Service kind                             : Complete Main
  48. Default                                  : Yes
  49. Forced                                   : No

  50. Text
  51. ID                                       : 3
  52. Format                                   : UTF-8
  53. Codec ID                                 : S_TEXT/UTF8
  54. Codec ID/Info                            : UTF-8 Plain Text
  55. Duration                                 : 1 h 32 min
  56. Bit rate                                 : 54 b/s
  57. Count of elements                        : 1341
  58. Stream size                              : 37.1 KiB (0%)
  59. Title                                    : SDH
  60. Language                                 : English
  61. Default                                  : No
  62. Forced                                   : No
复制代码

圣文森的男孩们/圣文生男孩 The.Boys.Of.St.Vincent.1992.1080p.AMZN.WEBRip.DDP2.0.x264-TEPES 3.62GB-2.png 圣文森的男孩们/圣文生男孩 The.Boys.Of.St.Vincent.1992.1080p.AMZN.WEBRip.DDP2.0.x264-TEPES 3.62GB-3.png 圣文森的男孩们/圣文生男孩 The.Boys.Of.St.Vincent.1992.1080p.AMZN.WEBRip.DDP2.0.x264-TEPES 3.62GB-4.png






回复

使用道具 举报

懒得打字嘛,点击右侧快捷回复 【右侧内容,后台自定义】
您需要登录后才可以回帖 登录 | 立即加入

本版积分规则

Archiver|小黑屋| 蓝光电影网 |网站地图

Copyright © 2021 Comsenz Inc. Powered by 蓝光电影网

蓝光电影网

本站内容由用户自主分享和转载自互联网,转载目的在于传递更多信息,并不代表本网赞同其观点和对其真实性负责。

如有侵权、违反国家法律政策行为,请联系我们,我们会第一时间及时清除和处理!

举报反馈邮箱:[email protected]

快速回复 返回顶部 返回列表