找回密码

蓝光电影网

查看: 319|回复: 4

[爱情] 一将功成万骨枯/一将功成万骨骷 Rio.Grande.1950.INTERNAL.720p.BluRay.X264-AMIABLE 6.29GB

[复制链接]
蓝光币
511
发表于 2020-4-24 00:19:11 | 显示全部楼层 |阅读模式
一将功成万骨枯/一将功成万骨骷 Rio.Grande.1950.INTERNAL.720p.BluRay.X264-AMIABLE 6.29GB-1.png

译  名 一将功成万骨枯 / 一将功成万骨骷 / 田野好汉 / 格兰得河 / 边陲铁骑军
片  名 Rio Grande
年  代 1950
产  地 美国
类  别 恋爱 / 西部
语  言 英语
上映日期 1950-11-15(美国)
IMDb评分  7.1/10 from 13459 users
IMDb链接  https://www.imdb.com/title/tt0042895
豆瓣评分 7.0/10 from 308 users
豆瓣链接 https://movie.douban.com/subject/1295062/
片  长 105 分钟
导  演 约翰·福特 John Ford
编  剧 詹姆斯·凯文·麦吉尼斯 James Kevin McGuinness / 詹姆斯·华纳·贝拉 James Warner Bellah
主  演 约翰·韦恩 John Wayne
       玛琳·奥哈拉 Maureen O'Hara
       本·约翰逊 Ben Johnson
       小克劳德·贾曼 Claude Jarman Jr.
       小哈里·凯瑞 Harry Carey Jr.
       齐尔·威尔斯 Chill Wills
       卡罗尔·耐什 J. Carrol Naish
       维克托·麦克拉格伦 Victor McLaglen
       格兰特·威瑟斯 Grant Withers
       Sons of the Pioneers
       Peter Ortiz
       Steve Pendleton
       Karolyn Grimes
       Alberto Morin
       斯坦琼斯 Stan Jones


标  签 美国 | 约翰·福特 | 西部 | 西部片 | JohnFord | 约翰·韦恩 | 1950s | 1950

简  介  

  骑兵队长约克驻守在得克萨斯州的要塞里,与印第安人发生了军事磨擦,儿子加入了他的军队,妻子也火烧眉毛的搬入了要塞。在家庭冲突眼前,他固执的军官性情差点毁了全部家庭,但终极重归于好。在出现家庭的完善终局的同时,战役也以印第安人的失利而了结……
  1. Video
  2. ID                                       : 1
  3. Format                                   : AVC
  4. Format/Info                              : Advanced Video Codec
  5. Format profile                           : [email protected]
  6. Format settings                          : CABAC / 11 Ref Frames
  7. Format settings, CABAC                   : Yes
  8. Format settings, Reference frames        : 11 frames
  9. Codec ID                                 : V_MPEG4/ISO/AVC
  10. Duration                                 : 1 h 45 min
  11. Bit rate                                 : 7 751 kb/s
  12. Width                                    : 986 pixels
  13. Height                                   : 720 pixels
  14. Display aspect ratio                     : 4:3
  15. Frame rate mode                          : Constant
  16. Frame rate                               : 23.976 (24000/1001/189150) FPS
  17. Color space                              : YUV
  18. Chroma subsampling                       : 4:2:0
  19. Bit depth                                : 8 bits
  20. Scan type                                : Progressive
  21. Bits/(Pixel*Frame)                       : 0.455
  22. Stream size                              : 5.69 GiB (90%)
  23. Writing library                          : x264 core 159 r2991 1771b55
  24. Encoding settings                        : cabac=1 / ref=11 / deblock=1:-3:-3 / analyse=0x3:0x133 / me=umh / subme=10 / psy=1 / psy_rd=1.10:0.00 / mixed_ref=1 / me_range=24 / chroma_me=1 / trellis=2 / 8x8dct=1 / cqm=0 / deadzone=21,11 / fast_pskip=0 / chroma_qp_offset=-2 / threads=22 / lookahead_threads=5 / sliced_threads=0 / nr=0 / decimate=0 / interlaced=0 / bluray_compat=0 / constrained_intra=0 / bframes=10 / b_pyramid=2 / b_adapt=2 / b_bias=0 / direct=3 / weightb=1 / open_gop=0 / weightp=2 / keyint=240 / keyint_min=24 / scenecut=40 / intra_refresh=0 / rc=crf / mbtree=0 / crf=17.0 / qcomp=0.60 / qpmin=0 / qpmax=69 / qpstep=4 / ip_ratio=1.30 / pb_ratio=1.20 / aq=3:0.65
  25. Default                                  : Yes
  26. Forced                                   : No
  27. Color range                              : Limited
  28. Matrix coefficients                      : BT.709

  29. Audio #1
  30. ID                                       : 2
  31. Format                                   : FLAC
  32. Format/Info                              : Free Lossless Audio Codec
  33. Codec ID                                 : A_FLAC
  34. Duration                                 : 1 h 45 min
  35. Bit rate mode                            : Variable
  36. Bit rate                                 : 621 kb/s
  37. Channel(s)                               : 2 channels
  38. Channel layout                           : L R
  39. Sampling rate                            : 48.0 kHz
  40. Frame rate                               : 11.719 FPS (4096 SPF)
  41. Bit depth                                : 24 bits
  42. Compression mode                         : Lossless
  43. Stream size                              : 466 MiB (7%)
  44. Title                                    : Flac 2.0
  45. Writing library                          : libFLAC 1.2.1 (UTC 2007-09-17)
  46. Language                                 : English
  47. Default                                  : Yes
  48. Forced                                   : No

  49. Audio #2
  50. ID                                       : 3
  51. Format                                   : AAC LC
  52. Format/Info                              : Advanced Audio Codec Low Complexity
  53. Codec ID                                 : A_AAC-2
  54. Duration                                 : 1 h 45 min
  55. Bit rate                                 : 96.0 kb/s
  56. Channel(s)                               : 2 channels
  57. Channel layout                           : L R
  58. Sampling rate                            : 48.0 kHz
  59. Frame rate                               : 46.875 FPS (1024 SPF)
  60. Compression mode                         : Lossy
  61. Delay relative to video                  : 9 ms
  62. Stream size                              : 72.0 MiB (1%)
  63. Title                                    : Commentary by Western authority Stephen Prince
  64. Language                                 : English
  65. Default                                  : No
  66. Forced                                   : No

  67. Audio #3
  68. ID                                       : 4
  69. Format                                   : AAC LC
  70. Format/Info                              : Advanced Audio Codec Low Complexity
  71. Codec ID                                 : A_AAC-2
  72. Duration                                 : 1 h 45 min
  73. Bit rate                                 : 96.0 kb/s
  74. Channel(s)                               : 2 channels
  75. Channel layout                           : L R
  76. Sampling rate                            : 48.0 kHz
  77. Frame rate                               : 46.875 FPS (1024 SPF)
  78. Compression mode                         : Lossy
  79. Delay relative to video                  : 9 ms
  80. Stream size                              : 72.8 MiB (1%)
  81. Title                                    : Scene specific audio commentary with Maureen O\'Hara
  82. Language                                 : English
  83. Default                                  : No
  84. Forced                                   : No

  85. Text #1
  86. ID                                       : 5
  87. Format                                   : UTF-8
  88. Codec ID                                 : S_TEXT/UTF8
  89. Codec ID/Info                            : UTF-8 Plain Text
  90. Duration                                 : 1 h 41 min
  91. Bit rate                                 : 42 b/s
  92. Count of elements                        : 1168
  93. Stream size                              : 31.6 KiB (0%)
  94. Title                                    : Stripped SRT
  95. Language                                 : English
  96. Default                                  : No
  97. Forced                                   : No

  98. Text #2
  99. ID                                       : 6
  100. Format                                   : UTF-8
  101. Codec ID                                 : S_TEXT/UTF8
  102. Codec ID/Info                            : UTF-8 Plain Text
  103. Duration                                 : 1 h 42 min
  104. Bit rate                                 : 46 b/s
  105. Count of elements                        : 1244
  106. Stream size                              : 35.1 KiB (0%)
  107. Title                                    : SDH SRT
  108. Language                                 : English
  109. Default                                  : No
  110. Forced                                   : No

  111. Text #3
  112. ID                                       : 7
  113. Format                                   : PGS
  114. Muxing mode                              : zlib
  115. Codec ID                                 : S_HDMV/PGS
  116. Codec ID/Info                            : Picture based subtitle format used on BDs/HD-DVDs
  117. Duration                                 : 1 h 42 min
  118. Bit rate                                 : 34.0 kb/s
  119. Count of elements                        : 2490
  120. Stream size                              : 24.9 MiB (0%)
  121. Title                                    : SDH
  122. Language                                 : English
  123. Default                                  : No
  124. Forced                                   : No

  125. Menu
  126. 00:00:00.000                             : :Chapter 01
  127. 00:10:09.526                             : :Chapter 02
  128. 00:19:36.926                             : :Chapter 03
  129. 00:31:25.300                             : :Chapter 04
  130. 00:42:10.903                             : :Chapter 05
  131. 00:54:03.323                             : :Chapter 06
  132. 01:08:03.204                             : :Chapter 07
  133. 01:18:45.512                             : :Chapter 08
  134. 01:31:05.669                             : :Chapter 09
复制代码

一将功成万骨枯/一将功成万骨骷 Rio.Grande.1950.INTERNAL.720p.BluRay.X264-AMIABLE 6.29GB-2.png






回复

使用道具 举报

蓝光币
3738
发表于 2020-4-24 01:10:51 | 显示全部楼层
谢谢楼主分享
回复 支持 反对

使用道具 举报

懒得打字嘛,点击右侧快捷回复 【右侧内容,后台自定义】
您需要登录后才可以回帖 登录 | 立即加入

本版积分规则

Archiver|小黑屋| 蓝光电影网 |网站地图

Copyright © 2021 Comsenz Inc. Powered by 蓝光电影网

蓝光电影网

本站内容由用户自主分享和转载自互联网,转载目的在于传递更多信息,并不代表本网赞同其观点和对其真实性负责。

如有侵权、违反国家法律政策行为,请联系我们,我们会第一时间及时清除和处理!

举报反馈邮箱:[email protected]

快速回复 返回顶部 返回列表