找回密码

蓝光电影网

查看: 290|回复: 3

[剧情] 第二个月亮 Sunflower.1970.1080p.BluRay.x264-HD4U 6.56GB

[复制链接]
蓝光币
511
发表于 2020-4-24 12:14:41 | 显示全部楼层 |阅读模式
第二个月亮 Sunflower.1970.1080p.BluRay.x264-HD4U 6.56GB-1.png

译  名 第二个月亮 / Sunflower / 向日葵 / 真爱不流泪
片  名 I girasoli
年  代 1970
产  地 意大利 / 法国 / 苏联 / 美国
类  别 剧情
语  言 意大利语 / 英语 / 俄语
上映日期 1970-03-14
IMDb评分  7.4/10 from 3029 users
IMDb链接  https://www.imdb.com/title/tt0065782
豆瓣评分 7.9/10 from 480 users
豆瓣链接 https://movie.douban.com/subject/1295175/
片  长 107分钟
导  演 Vittorio De Sica
编  剧 Tonino Guerra / Giorgi Mdivani
主  演 Sophia Loren
       Marcello Mastroianni
       Lyudmila Savelyeva


标  签 意大利 | 德·西卡 | 索非亚罗兰 | 意大利电影 | 恋爱 | 1970 | 1970s | VittorioDeSica

简  介  

  在二次天下大战时代,一位意大利男人应征参军,今后消息全无,他的爱人一向期待着他的归来。战争竣事后,他的爱人不远千里到苏联去找他,当她经过含辛茹苦终究找到他的时辰,发现他已经和一位苏联女子同居了。

获奖情况  

  第43届奥斯卡金像奖(1971)
  最好原创配乐(提名) 亨利·曼西尼
  1. Video
  2. ID                                       : 1
  3. Format                                   : AVC
  4. Format/Info                              : Advanced Video Codec
  5. Format profile                           : [email protected]
  6. Format settings                          : CABAC / 4 Ref Frames
  7. Format settings, CABAC                   : Yes
  8. Format settings, Reference frames        : 4 frames
  9. Muxing mode                              : Header stripping
  10. Codec ID                                 : V_MPEG4/ISO/AVC
  11. Duration                                 : 1 h 47 min
  12. Bit rate                                 : 8 586 kb/s
  13. Width                                    : 1 920 pixels
  14. Height                                   : 1 000 pixels
  15. Display aspect ratio                     : 1.920
  16. Frame rate mode                          : Constant
  17. Frame rate                               : 23.976 FPS
  18. Color space                              : YUV
  19. Chroma subsampling                       : 4:2:0
  20. Bit depth                                : 8 bits
  21. Scan type                                : Progressive
  22. Bits/(Pixel*Frame)                       : 0.187
  23. Stream size                              : 6.31 GiB (96%)
  24. Writing library                          : x264 core 115 r1995 c1e60b9
  25. Encoding settings                        : cabac=1 / ref=4 / deblock=1:0:0 / analyse=0x3:0x133 / me=umh / subme=7 / psy=1 / psy_rd=1.00:0.00 / mixed_ref=1 / me_range=16 / chroma_me=1 / trellis=1 / 8x8dct=1 / cqm=0 / deadzone=21,11 / fast_pskip=0 / chroma_qp_offset=-2 / threads=9 / sliced_threads=0 / nr=0 / decimate=1 / interlaced=0 / bluray_compat=0 / constrained_intra=0 / bframes=3 / b_pyramid=2 / b_adapt=1 / b_bias=0 / direct=1 / weightb=1 / open_gop=0 / weightp=2 / keyint=250 / keyint_min=23 / scenecut=40 / intra_refresh=0 / rc_lookahead=40 / rc=2pass / mbtree=1 / bitrate=8586 / ratetol=1.0 / qcomp=0.60 / qpmin=0 / qpmax=69 / qpstep=4 / cplxblur=20.0 / qblur=0.5 / ip_ratio=1.40 / aq=1:1.00
  26. Language                                 : Italian
  27. Default                                  : Yes
  28. Forced                                   : No

  29. Audio
  30. ID                                       : 2
  31. Format                                   : AC-3
  32. Format/Info                              : Audio Coding 3
  33. Commercial name                          : Dolby Digital
  34. Muxing mode                              : Header stripping
  35. Codec ID                                 : A_AC3
  36. Duration                                 : 1 h 47 min
  37. Bit rate mode                            : Constant
  38. Bit rate                                 : 160 kb/s
  39. Channel(s)                               : 1 channel
  40. Channel layout                           : C
  41. Sampling rate                            : 48.0 kHz
  42. Frame rate                               : 31.250 FPS (1536 SPF)
  43. Bit depth                                : 16 bits
  44. Compression mode                         : Lossy
  45. Stream size                              : 123 MiB (2%)
  46. Language                                 : Italian
  47. Service kind                             : Complete Main
  48. Default                                  : Yes
  49. Forced                                   : No

  50. Text
  51. ID                                       : 3
  52. Format                                   : UTF-8
  53. Codec ID                                 : S_TEXT/UTF8
  54. Codec ID/Info                            : UTF-8 Plain Text
  55. Language                                 : English
  56. Default                                  : Yes
  57. Forced                                   : No
复制代码

第二个月亮 Sunflower.1970.1080p.BluRay.x264-HD4U 6.56GB-2.png 第二个月亮 Sunflower.1970.1080p.BluRay.x264-HD4U 6.56GB-3.png 第二个月亮 Sunflower.1970.1080p.BluRay.x264-HD4U 6.56GB-4.png






回复

使用道具 举报

懒得打字嘛,点击右侧快捷回复 【右侧内容,后台自定义】
您需要登录后才可以回帖 登录 | 立即加入

本版积分规则

Archiver|小黑屋| 蓝光电影网 |网站地图

Copyright © 2021 Comsenz Inc. Powered by 蓝光电影网

蓝光电影网

本站内容由用户自主分享和转载自互联网,转载目的在于传递更多信息,并不代表本网赞同其观点和对其真实性负责。

如有侵权、违反国家法律政策行为,请联系我们,我们会第一时间及时清除和处理!

举报反馈邮箱:[email protected]

快速回复 返回顶部 返回列表