找回密码

蓝光电影网

查看: 542|回复: 4

[科幻] 巨石阵灾劫 Stonehenge.Apocalypse.2010.1080p.BluRay.x264-HD4U 6.56GB

[复制链接]
蓝光币
511
发表于 2020-4-24 12:15:25 | 显示全部楼层 |阅读模式
巨石阵灾劫 Stonehenge.Apocalypse.2010.1080p.BluRay.x264-HD4U 6.56GB-1.png

译  名 巨石阵灾劫 / A Descoberta em Stonehenge / 巨石劫 / 巨石启迪录
片  名 Stonehenge Apocalypse
年  代 2010
产  地 美国
类  别 科幻
语  言 英语
上映日期 2010-06-12
IMDb评分  4.2/10 from 2378 users
IMDb链接  https://www.imdb.com/title/tt1488598
豆瓣评分 5.2/10 from 1463 users
豆瓣链接 https://movie.douban.com/subject/4882976/
导  演 保罗·齐勒 Paul Ziller
编  剧 Brad Abraham / Paul Ziller
主  演 劳洛·查坦德 Lauro Chartrand
       米沙·克林斯 Misha Collins
       Dolores Drake


标  签 科幻 | 灾难 | 美国 | 美国电影 | 2010 | 电影 | MishaCollins | Syfy

简  介  

  当一群考古学家在巨石堆历史纪念碑四周挖出一具木乃伊时,一个潜藏在岩床下的太古机械部件也被发现了。绝不知情的工人们偶然间触发了一个机关,因而启动了连续串终结天下的事务。
  When a group of archaeologists dig up a human skeleton near the historical monument of STONEHENGE, an ancient piece of machinery hidden beneath the bedrock is discovered. Not knowing what it could be the workers accidentally trigger the mechanism and start a chain of events that may very well end the world as we know it.
  1. Video
  2. ID                                       : 2
  3. Format                                   : AVC
  4. Format/Info                              : Advanced Video Codec
  5. Format profile                           : [email protected]
  6. Format settings                          : CABAC / 4 Ref Frames
  7. Format settings, CABAC                   : Yes
  8. Format settings, Reference frames        : 4 frames
  9. Muxing mode                              : Header stripping
  10. Codec ID                                 : V_MPEG4/ISO/AVC
  11. Duration                                 : 1 h 30 min
  12. Bit rate                                 : 9 700 kb/s
  13. Width                                    : 1 920 pixels
  14. Height                                   : 1 080 pixels
  15. Display aspect ratio                     : 16:9
  16. Frame rate mode                          : Constant
  17. Frame rate                               : 23.976 FPS
  18. Color space                              : YUV
  19. Chroma subsampling                       : 4:2:0
  20. Bit depth                                : 8 bits
  21. Scan type                                : Progressive
  22. Bits/(Pixel*Frame)                       : 0.195
  23. Stream size                              : 6.02 GiB (92%)
  24. Writing library                          : x264 core 115 r1995 c1e60b9
  25. Encoding settings                        : cabac=1 / ref=4 / deblock=1:0:0 / analyse=0x3:0x133 / me=umh / subme=7 / psy=1 / psy_rd=1.00:0.00 / mixed_ref=1 / me_range=16 / chroma_me=1 / trellis=1 / 8x8dct=1 / cqm=0 / deadzone=21,11 / fast_pskip=0 / chroma_qp_offset=-2 / threads=12 / sliced_threads=0 / nr=0 / decimate=1 / interlaced=0 / bluray_compat=0 / constrained_intra=0 / bframes=3 / b_pyramid=2 / b_adapt=1 / b_bias=0 / direct=1 / weightb=1 / open_gop=0 / weightp=2 / keyint=250 / keyint_min=23 / scenecut=40 / intra_refresh=0 / rc_lookahead=40 / rc=2pass / mbtree=1 / bitrate=9700 / ratetol=1.0 / qcomp=0.60 / qpmin=0 / qpmax=69 / qpstep=4 / cplxblur=20.0 / qblur=0.5 / ip_ratio=1.40 / aq=1:1.00
  26. Language                                 : English
  27. Default                                  : Yes
  28. Forced                                   : No

  29. Audio
  30. ID                                       : 1
  31. Format                                   : AC-3
  32. Format/Info                              : Audio Coding 3
  33. Commercial name                          : Dolby Digital
  34. Muxing mode                              : Header stripping
  35. Codec ID                                 : A_AC3
  36. Duration                                 : 1 h 30 min
  37. Bit rate mode                            : Constant
  38. Bit rate                                 : 640 kb/s
  39. Channel(s)                               : 6 channels
  40. Channel layout                           : L R C LFE Ls Rs
  41. Sampling rate                            : 48.0 kHz
  42. Frame rate                               : 31.250 FPS (1536 SPF)
  43. Bit depth                                : 16 bits
  44. Compression mode                         : Lossy
  45. Stream size                              : 416 MiB (6%)
  46. Service kind                             : Complete Main
  47. Default                                  : Yes
  48. Forced                                   : No
复制代码

巨石阵灾劫 Stonehenge.Apocalypse.2010.1080p.BluRay.x264-HD4U 6.56GB-2.png 巨石阵灾劫 Stonehenge.Apocalypse.2010.1080p.BluRay.x264-HD4U 6.56GB-3.png 巨石阵灾劫 Stonehenge.Apocalypse.2010.1080p.BluRay.x264-HD4U 6.56GB-4.png






回复

使用道具 举报

蓝光币
1502
发表于 2020-4-24 20:16:28 | 显示全部楼层

楼主太厉害了!楼主,电影应该很好看我觉得蓝光电影网真是个好地方!
回复 支持 反对

使用道具 举报

懒得打字嘛,点击右侧快捷回复 【右侧内容,后台自定义】
您需要登录后才可以回帖 登录 | 立即加入

本版积分规则

Archiver|小黑屋| 蓝光电影网 |网站地图

Copyright © 2021 Comsenz Inc. Powered by 蓝光电影网

蓝光电影网

本站内容由用户自主分享和转载自互联网,转载目的在于传递更多信息,并不代表本网赞同其观点和对其真实性负责。

如有侵权、违反国家法律政策行为,请联系我们,我们会第一时间及时清除和处理!

举报反馈邮箱:[email protected]

快速回复 返回顶部 返回列表