找回密码

蓝光电影网

查看: 1087|回复: 3

[动画] 龙珠Z剧场版11:击倒超战士!! 胜利是属于我的 Dragon.Ball.Z.Bio.Broly.2005.1080p.BluRay.x264-TENEIGHTY 4.37GB

[复制链接]
蓝光币
515
发表于 2020-4-24 12:17:10 | 显示全部楼层 |阅读模式
龙珠Z戏院版11:击倒超战士!! 成功是属于我的 Dragon.Ball.Z.Bio.Broly.2005.1080p.BluRay.x264-TENEIGHTY 4.37GB-1.png

译  名 龙珠Z戏院版11:击倒超战士!! 成功是属于我的 / Doragon b?ru Z 11: S?pa senshi gekiha! Katsu no wa ore da
片  名 ドラゴンボール Z 劇場版  超戦士撃破!! 勝つのはオレだ
年  代 1994
产  地 日本
类  别 行动 / 动画
语  言 日语
上映日期 1994-07-09
IMDb评分  6.0/10 from 4202 users
IMDb链接  https://www.imdb.com/title/tt0142234
豆瓣评分 7.2/10 from 1147 users
豆瓣链接 https://movie.douban.com/subject/3089224/
片  长 46分钟
导  演 上田芳裕
编  剧 鸟山明 Akira Toriyama / 小山高生 Takao Koyama
主  演 野泽雅子 Masako Nozawa
       草尾毅 Takeshi Kusao
       乡里大辅 Daisuke G?ri
       田中真弓 Mayumi Tanaka
       伊藤美纪 Miki It?
       龙田直树 Naoki Tatsuta
       藤原启治 Keiji Fujiwara
       佐藤正治 Masaharu Sato
       茶风林 Chaf?rin
       铃木富子 Tomiko Suzuki
       江川央生 Hisao Egawa
       麻生智久 Asou Tomohisa
       幸野善之 Kouno Yoshiyuki
       岛田敏 Bin Shimada


标  签 动画 | 龙珠 | 日本 | 戏院版 | 日本动画 | 1994 | 鸟山明 | 童年

简  介  

  撒旦虽然赢得全国第一交锋大会的冠军,却也惹得瘟神上门。18号时不时上门追讨撒旦许诺的两万万元,令这个浮名豪杰诲人不倦。这一天,一个西装革履的男人但这应战书上门,惟恐儿时尿床的丑闻通告众人,撒旦被迫接管应战,随着个汉子来到了位于大海中心的小岛之城——米克因城。除了18号牢牢跟从外,悟天和特南克斯也偷偷尾随而至。米克因城的仆人是加雅?巴答男爵。为了报儿时撒旦欺侮自己的冤仇,他聘请众多优异的科学家经过基因重组制造出气力强大可骇的生化战士,其中就包括悟天和特南克斯的宿敌布罗利。战役起头朝着不成猜测的偏向成长……
  本片为《龙珠Z》戏院版。
  1. Video
  2. ID                                       : 1
  3. Format                                   : AVC
  4. Format/Info                              : Advanced Video Codec
  5. Format profile                           : [email protected]
  6. Format settings                          : CABAC / 4 Ref Frames
  7. Format settings, CABAC                   : Yes
  8. Format settings, Reference frames        : 4 frames
  9. Muxing mode                              : Header stripping
  10. Codec ID                                 : V_MPEG4/ISO/AVC
  11. Duration                                 : 46 min 35 s
  12. Bit rate                                 : 12.1 Mb/s
  13. Width                                    : 1 920 pixels
  14. Height                                   : 1 080 pixels
  15. Display aspect ratio                     : 16:9
  16. Frame rate mode                          : Constant
  17. Frame rate                               : 23.976 (24000/1001/189150) FPS
  18. Color space                              : YUV
  19. Chroma subsampling                       : 4:2:0
  20. Bit depth                                : 8 bits
  21. Scan type                                : Progressive
  22. Bits/(Pixel*Frame)                       : 0.244
  23. Stream size                              : 3.86 GiB (88%)
  24. Writing library                          : x264 core 115 r1995 c1e60b9
  25. Encoding settings                        : cabac=1 / ref=4 / deblock=1:0:0 / analyse=0x3:0x133 / me=umh / subme=7 / psy=1 / psy_rd=1.00:0.00 / mixed_ref=1 / me_range=16 / chroma_me=1 / trellis=1 / 8x8dct=1 / cqm=0 / deadzone=21,11 / fast_pskip=0 / chroma_qp_offset=-2 / threads=18 / sliced_threads=0 / nr=0 / decimate=1 / interlaced=0 / bluray_compat=0 / constrained_intra=0 / bframes=3 / b_pyramid=2 / b_adapt=1 / b_bias=0 / direct=1 / weightb=1 / open_gop=0 / weightp=2 / keyint=250 / keyint_min=23 / scenecut=40 / intra_refresh=0 / rc_lookahead=40 / rc=2pass / mbtree=1 / bitrate=12148 / ratetol=1.0 / qcomp=0.60 / qpmin=0 / qpmax=69 / qpstep=4 / cplxblur=20.0 / qblur=0.5 / ip_ratio=1.40 / aq=1:1.00
  26. Language                                 : English
  27. Default                                  : Yes
  28. Forced                                   : No

  29. Audio #1
  30. ID                                       : 2
  31. Format                                   : AC-3
  32. Format/Info                              : Audio Coding 3
  33. Commercial name                          : Dolby Digital
  34. Muxing mode                              : Header stripping
  35. Codec ID                                 : A_AC3
  36. Duration                                 : 46 min 35 s
  37. Bit rate mode                            : Constant
  38. Bit rate                                 : 640 kb/s
  39. Channel(s)                               : 6 channels
  40. Channel layout                           : L R C LFE Ls Rs
  41. Sampling rate                            : 48.0 kHz
  42. Frame rate                               : 31.250 FPS (1536 SPF)
  43. Bit depth                                : 16 bits
  44. Compression mode                         : Lossy
  45. Stream size                              : 213 MiB (5%)
  46. Title                                    : English
  47. Language                                 : English
  48. Service kind                             : Complete Main
  49. Default                                  : Yes
  50. Forced                                   : No

  51. Audio #2
  52. ID                                       : 3
  53. Format                                   : AC-3
  54. Format/Info                              : Audio Coding 3
  55. Commercial name                          : Dolby Digital
  56. Muxing mode                              : Header stripping
  57. Codec ID                                 : A_AC3
  58. Duration                                 : 46 min 35 s
  59. Bit rate mode                            : Constant
  60. Bit rate                                 : 640 kb/s
  61. Channel(s)                               : 1 channel
  62. Channel layout                           : C
  63. Sampling rate                            : 48.0 kHz
  64. Frame rate                               : 31.250 FPS (1536 SPF)
  65. Bit depth                                : 16 bits
  66. Compression mode                         : Lossy
  67. Stream size                              : 213 MiB (5%)
  68. Title                                    : Japanese
  69. Language                                 : Japanese
  70. Service kind                             : Complete Main
  71. Default                                  : No
  72. Forced                                   : No

  73. Text
  74. ID                                       : 4
  75. Format                                   : UTF-8
  76. Codec ID                                 : S_TEXT/UTF8
  77. Codec ID/Info                            : UTF-8 Plain Text
  78. Default                                  : Yes
  79. Forced                                   : No
复制代码

龙珠Z戏院版11:击倒超战士!! 成功是属于我的 Dragon.Ball.Z.Bio.Broly.2005.1080p.BluRay.x264-TENEIGHTY 4.37GB-2.png 龙珠Z戏院版11:击倒超战士!! 成功是属于我的 Dragon.Ball.Z.Bio.Broly.2005.1080p.BluRay.x264-TENEIGHTY 4.37GB-3.png 龙珠Z戏院版11:击倒超战士!! 成功是属于我的 Dragon.Ball.Z.Bio.Broly.2005.1080p.BluRay.x264-TENEIGHTY 4.37GB-4.png






回复

使用道具 举报

懒得打字嘛,点击右侧快捷回复 【右侧内容,后台自定义】
您需要登录后才可以回帖 登录 | 立即加入

本版积分规则

Archiver|小黑屋| 蓝光电影网 |网站地图

Copyright © 2021 Comsenz Inc. Powered by 蓝光电影网

蓝光电影网

本站内容由用户自主分享和转载自互联网,转载目的在于传递更多信息,并不代表本网赞同其观点和对其真实性负责。

如有侵权、违反国家法律政策行为,请联系我们,我们会第一时间及时清除和处理!

举报反馈邮箱:[email protected]

快速回复 返回顶部 返回列表