找回密码

蓝光电影网

查看: 890|回复: 2

[动作] 帝国时代:亚洲王朝/血战王朝 Clash.Of.Empires.Battle.For.Asia.2011.1080p.BluRay.x264-METH 7.65GB

[复制链接]
蓝光币
515
发表于 2020-4-24 12:18:02 | 显示全部楼层 |阅读模式
帝国时代:亚洲王朝/血战王朝 Clash.Of.Empires.Battle.For.Asia.2011.1080p.BluRay.x264-METH 7.65GB-1.png

译  名 帝国时代:亚洲王朝 / 血战王朝
片  名 Clash Of Empires Battle For Asia
年  代 2011
产  地 马来西亚
类  别 行动 / 冒险
语  言 英语
上映日期 2011-03-10
IMDb评分  3.7/10 from 980 users
IMDb链接  https://www.imdb.com/title/tt1784670
豆瓣评分 3.5/10 from 419 users
豆瓣链接 https://movie.douban.com/subject/6440580/
片  长 109分钟
导  演 Yusry Kru
编  剧 Amir Hafizi / Yusry Kru
主  演 Stephen Rahman Hughes
       Gavin Stenhouse
       陆思敬 Jing Lusi
       Rahim Razali
       Ummi Nazeera
       Khir Rahman
       Craig Fong


标  签 马来西亚 | 历史 | 行动 | 马来西亚电影 | 坑爹之作 | 烂片 | 马来西亚人坑爹不是,太有喜感了 | 2011

简  介  

  公元120年,全盛期间的罗马帝国正预备入侵亚洲,但远东霸主中国想要单独掌控这片地盘,他们绝不会向罗马帝国屈就,让出一分一厘的地盘。对权利的渴求只能经过饮血来纾解,获得飨足。中古时代陆地上两个最强大的国家之间的抵触一触即发,它们的碰撞将会缔造出史无前例的巨大而奥秘的传奇。
  本片报告了在这样的文化布景下,亚历山大大帝后裔、一位名叫“Merong Mahawangsa”的勇敢水兵上尉,率领船队护送罗马王子来亚洲与中国公主结婚的故事。在旅途中,他将履历很多浪漫而危险的事务
  1. Video
  2. ID                                       : 1
  3. Format                                   : AVC
  4. Format/Info                              : Advanced Video Codec
  5. Format profile                           : [email protected]
  6. Format settings                          : CABAC / 4 Ref Frames
  7. Format settings, CABAC                   : Yes
  8. Format settings, Reference frames        : 4 frames
  9. Codec ID                                 : V_MPEG4/ISO/AVC
  10. Duration                                 : 1 h 49 min
  11. Bit rate                                 : 8 515 kb/s
  12. Width                                    : 1 920 pixels
  13. Height                                   : 1 080 pixels
  14. Display aspect ratio                     : 16:9
  15. Frame rate mode                          : Constant
  16. Frame rate                               : 24.000 FPS
  17. Color space                              : YUV
  18. Chroma subsampling                       : 4:2:0
  19. Bit depth                                : 8 bits
  20. Scan type                                : Progressive
  21. Bits/(Pixel*Frame)                       : 0.171
  22. Stream size                              : 6.35 GiB (83%)
  23. Writing library                          : x264 core 115 r1995 c1e60b9
  24. Encoding settings                        : cabac=1 / ref=4 / deblock=1:0:0 / analyse=0x3:0x133 / me=umh / subme=7 / psy=1 / psy_rd=1.00:0.00 / mixed_ref=1 / me_range=16 / chroma_me=1 / trellis=1 / 8x8dct=1 / cqm=0 / deadzone=21,11 / fast_pskip=0 / chroma_qp_offset=-2 / threads=12 / sliced_threads=0 / nr=0 / decimate=1 / interlaced=0 / bluray_compat=0 / constrained_intra=0 / bframes=3 / b_pyramid=2 / b_adapt=1 / b_bias=0 / direct=1 / weightb=1 / open_gop=0 / weightp=2 / keyint=250 / keyint_min=24 / scenecut=40 / intra_refresh=0 / rc_lookahead=40 / rc=2pass / mbtree=1 / bitrate=8515 / ratetol=1.0 / qcomp=0.60 / qpmin=0 / qpmax=69 / qpstep=4 / cplxblur=20.0 / qblur=0.5 / ip_ratio=1.40 / aq=1:1.00
  25. Language                                 : English
  26. Default                                  : Yes
  27. Forced                                   : No

  28. Audio
  29. ID                                       : 2
  30. Format                                   : DTS
  31. Format/Info                              : Digital Theater Systems
  32. Codec ID                                 : A_DTS
  33. Duration                                 : 1 h 49 min
  34. Bit rate mode                            : Constant
  35. Bit rate                                 : 1 509 kb/s
  36. Channel(s)                               : 6 channels
  37. Channel layout                           : C L R Ls Rs LFE
  38. Sampling rate                            : 48.0 kHz
  39. Frame rate                               : 93.750 FPS (512 SPF)
  40. Bit depth                                : 24 bits
  41. Compression mode                         : Lossy
  42. Stream size                              : 1.15 GiB (15%)
  43. Default                                  : Yes
  44. Forced                                   : No

  45. Text
  46. ID                                       : 3
  47. Format                                   : UTF-8
  48. Codec ID                                 : S_TEXT/UTF8
  49. Codec ID/Info                            : UTF-8 Plain Text
  50. Language                                 : English
  51. Default                                  : Yes
  52. Forced                                   : No
复制代码

帝国时代:亚洲王朝/血战王朝 Clash.Of.Empires.Battle.For.Asia.2011.1080p.BluRay.x264-METH 7.65GB-2.png 帝国时代:亚洲王朝/血战王朝 Clash.Of.Empires.Battle.For.Asia.2011.1080p.BluRay.x264-METH 7.65GB-3.png 帝国时代:亚洲王朝/血战王朝 Clash.Of.Empires.Battle.For.Asia.2011.1080p.BluRay.x264-METH 7.65GB-4.png






回复

使用道具 举报

蓝光币
641
发表于 2020-4-24 13:54:02 | 显示全部楼层
谢谢楼主无私分享。
回复 支持 反对

使用道具 举报

蓝光币
425
发表于 2020-4-25 10:33:00 | 显示全部楼层
楼主发贴辛苦了,谢谢楼主分享!我觉得蓝光电影网是注册对了!
回复 支持 反对

使用道具 举报

懒得打字嘛,点击右侧快捷回复 【右侧内容,后台自定义】
您需要登录后才可以回帖 登录 | 立即加入

本版积分规则

Archiver|小黑屋| 蓝光电影网 |网站地图

Copyright © 2021 Comsenz Inc. Powered by 蓝光电影网

蓝光电影网

本站内容由用户自主分享和转载自互联网,转载目的在于传递更多信息,并不代表本网赞同其观点和对其真实性负责。

如有侵权、违反国家法律政策行为,请联系我们,我们会第一时间及时清除和处理!

举报反馈邮箱:[email protected]

快速回复 返回顶部 返回列表