找回密码

蓝光电影网

查看: 267|回复: 1

[剧情] 太阳马戏团:人生之旅 Cirque.Du.Soleil.Journey.Of.Man.2000.1080p.BluRay.x264-FASTHD 3.27GB

[复制链接]
蓝光币
519
发表于 2020-4-24 12:18:43 | 显示全部楼层 |阅读模式
太阳马戏团:人生之旅 Cirque.Du.Soleil.Journey.Of.Man.2000.1080p.BluRay.x264-FASTHD 3.27GB-1.png

译  名 太阳马戏团:人生之旅
片  名 Cirque du Soleil: Journey of Man
年  代 2000
产  地 美国
类  别 剧情 / 短片 / 歌舞 / 家庭 / 奇异
语  言 英语
上映日期 2000-05-05(加拿大)
IMDb评分  6.9/10 from 630 users
IMDb链接  https://www.imdb.com/title/tt0213749
豆瓣评分 8.5/10 from 220 users
豆瓣链接 https://movie.douban.com/subject/1771191/
片  长 39 分钟
导  演 Keith Melton
主  演 伊恩·麦克莱恩 Ian McKellen
       Nicky Dewhurst
       Brian Dewhurst


标  签 太阳马戏团 | 杂技 | 美国 | 短片 | 舞台剧 | Cirque.du.Soleil | 加拿大 | 2000

简  介  

  暂无相关剧情先容
  1. Video
  2. ID                                       : 1
  3. Format                                   : AVC
  4. Format/Info                              : Advanced Video Codec
  5. Format profile                           : [email protected]
  6. Format settings                          : CABAC / 4 Ref Frames
  7. Format settings, CABAC                   : Yes
  8. Format settings, Reference frames        : 4 frames
  9. Muxing mode                              : Header stripping
  10. Codec ID                                 : V_MPEG4/ISO/AVC
  11. Duration                                 : 38 min 57 s
  12. Bit rate                                 : 10.5 Mb/s
  13. Width                                    : 1 920 pixels
  14. Height                                   : 1 080 pixels
  15. Display aspect ratio                     : 16:9
  16. Frame rate mode                          : Constant
  17. Frame rate                               : 23.976 (24000/1001/189150) FPS
  18. Color space                              : YUV
  19. Chroma subsampling                       : 4:2:0
  20. Bit depth                                : 8 bits
  21. Scan type                                : Progressive
  22. Bits/(Pixel*Frame)                       : 0.211
  23. Stream size                              : 2.79 GiB (85%)
  24. Writing library                          : x264 core 115 r1995 c1e60b9
  25. Encoding settings                        : cabac=1 / ref=4 / deblock=1:-1:-1 / analyse=0x3:0x113 / me=umh / subme=7 / psy=1 / psy_rd=1.00:0.00 / mixed_ref=1 / me_range=16 / chroma_me=1 / trellis=1 / 8x8dct=1 / cqm=0 / deadzone=21,11 / fast_pskip=0 / chroma_qp_offset=-2 / threads=12 / sliced_threads=0 / nr=0 / decimate=1 / interlaced=0 / bluray_compat=0 / constrained_intra=0 / bframes=3 / b_pyramid=2 / b_adapt=2 / b_bias=0 / direct=3 / weightb=1 / open_gop=0 / weightp=2 / keyint=250 / keyint_min=23 / scenecut=40 / intra_refresh=0 / rc_lookahead=40 / rc=2pass / mbtree=1 / bitrate=10509 / ratetol=1.0 / qcomp=0.60 / qpmin=0 / qpmax=69 / qpstep=4 / cplxblur=20.0 / qblur=0.5 / vbv_maxrate=50000 / vbv_bufsize=50000 / nal_hrd=none / ip_ratio=1.40 / aq=1:1.00
  26. Language                                 : English
  27. Default                                  : Yes
  28. Forced                                   : Yes

  29. Audio
  30. ID                                       : 2
  31. Format                                   : DTS
  32. Format/Info                              : Digital Theater Systems
  33. Muxing mode                              : Header stripping
  34. Codec ID                                 : A_DTS
  35. Duration                                 : 38 min 57 s
  36. Bit rate mode                            : Constant
  37. Bit rate                                 : 1 509 kb/s
  38. Channel(s)                               : 5 channels
  39. Channel layout                           : C L R Ls Rs
  40. Sampling rate                            : 48.0 kHz
  41. Frame rate                               : 93.750 FPS (512 SPF)
  42. Bit depth                                : 24 bits
  43. Compression mode                         : Lossy
  44. Stream size                              : 420 MiB (13%)
  45. Language                                 : English
  46. Default                                  : Yes
  47. Forced                                   : Yes
复制代码

太阳马戏团:人生之旅 Cirque.Du.Soleil.Journey.Of.Man.2000.1080p.BluRay.x264-FASTHD 3.27GB-2.png 太阳马戏团:人生之旅 Cirque.Du.Soleil.Journey.Of.Man.2000.1080p.BluRay.x264-FASTHD 3.27GB-3.png 太阳马戏团:人生之旅 Cirque.Du.Soleil.Journey.Of.Man.2000.1080p.BluRay.x264-FASTHD 3.27GB-4.png






回复

使用道具 举报

蓝光币
790
发表于 2020-4-26 02:10:35 | 显示全部楼层

楼主太厉害了!楼主,电影应该很好看我觉得蓝光电影网真是个好地方!
回复 支持 反对

使用道具 举报

懒得打字嘛,点击右侧快捷回复 【右侧内容,后台自定义】
您需要登录后才可以回帖 登录 | 立即加入

本版积分规则

Archiver|小黑屋| 蓝光电影网 |网站地图

Copyright © 2021 Comsenz Inc. Powered by 蓝光电影网

蓝光电影网

本站内容由用户自主分享和转载自互联网,转载目的在于传递更多信息,并不代表本网赞同其观点和对其真实性负责。

如有侵权、违反国家法律政策行为,请联系我们,我们会第一时间及时清除和处理!

举报反馈邮箱:[email protected]

快速回复 返回顶部 返回列表