找回密码

蓝光电影网

查看: 215|回复: 4

[剧情] 威龍猛探 The.Protector.1985.REMASTERED.720p.BluRay.x264-CREEPSHOW 5.46GB

[复制链接]
蓝光币
515
发表于 2020-4-24 12:20:11 | 显示全部楼层 |阅读模式
威龍猛探 The.Protector.1985.REMASTERED.720p.BluRay.x264-CREEPSHOW 5.46GB-1.png

译  名 威龙猛探 / The Protector
片  名 威龍猛探
年  代 1985
产  地 中国香港 / 美国
类  别 剧情 / 行动 / 犯罪
语  言 英语 / 粤语
上映日期 1985-07-11
IMDb评分  5.7/10 from 3827 users
IMDb链接  https://www.imdb.com/title/tt0089847
豆瓣评分 6.2/10 from 3528 users
豆瓣链接 https://movie.douban.com/subject/1304199/
片  长 91分钟
导  演 詹姆斯·格利肯豪斯 James Glickenhaus
编  剧 詹姆斯·格利肯豪斯 James Glickenhaus / King Sang Tang
主  演 成龙 Jackie Chan
       丹尼·爱罗 Danny Aiello
       Sandy Alexander
       维克多·阿诺德 Victor Arnold
       基姆·贝斯 Kim Bass
       Irene Britto
       Jesse Cameron-Glickenhaus
       Al Cerullo
       乔宏 Roy Chiao
       Richard Clarke
       Patrick James Clarke
       Ron Dandrea
       Valerie De Pena
       Saun Ellis
       Richard Epper
       贝琦·安·贝克 Becky Ann Baker
       Alan Gibbs
       李赛凤 Moon Lee
       乔·马鲁佐 Joe Maruzzo
       Ron Parady
       约翰·斯宾塞 John Spencer
       迈克·斯塔尔 Mike Starr
       Big John Studd
       比尔·华莱士 Bill Wallace
       特雷·威尔逊 Trey Wilson
       冯克安 Hark-On Fung
       詹姆斯·格利肯豪斯 James Glickenhaus
       约翰·拉达尔斯基 John Ladalski
       李海生 Hoi Sang Lee
       麦德罗 Te-Lo Mai
       沈威 Wai Shum
       保罗·L·史姑娘 Paul L. Smith
       杨群 Peter Yang Kwan
       叶倩文 Sally Yeh


标  签 成龙 | 行动 | 香港 | 香港电影 | 美国 | 1985 | 功夫 | 笑剧

简  介  

  当夜色覆盖纽约,这里又酿成了一座犯罪疯狂的城市。华人差人黄比利(成龙 饰)和同事来到酒吧庆贺来美十周年,不意同事却被一群闯入的劫匪杀死,愤慨的比利将凶手正法,是以激愤了下属,被赏罚性质的派到富翁沙比路的古装展上保持治安,表演时代,沙比路的女儿罗娜被一群人劫走,而沙比路的保镳宾尼事发前曾向香港打过量个电话,各种迹象表白,沙比路和香港头号毒枭高伟洛(乔宏 饰)有过合作,而二人发生争论能够致使此次的绑架。比利和同伴丹尼(丹尼·埃洛 Danny Aiello 饰)前往香港,在这里找到了高伟洛昔日两名合作伙伴李兴以及何天的女儿何美芳(叶倩文 饰),希望对方可以供给线索。高伟洛敏捷派人追杀比利和丹尼,以及昔日的合作伙伴。比利打破重重障碍,查清了高伟洛的巢穴,率领同伴向高倡议了猛攻……
  1. Video
  2. ID                                       : 1
  3. Format                                   : AVC
  4. Format/Info                              : Advanced Video Codec
  5. Format profile                           : [email protected]
  6. Format settings                          : CABAC / 5 Ref Frames
  7. Format settings, CABAC                   : Yes
  8. Format settings, Reference frames        : 5 frames
  9. Codec ID                                 : V_MPEG4/ISO/AVC
  10. Duration                                 : 1 h 35 min
  11. Bit rate                                 : 6 673 kb/s
  12. Width                                    : 1 280 pixels
  13. Height                                   : 688 pixels
  14. Display aspect ratio                     : 1.85:1
  15. Frame rate mode                          : Constant
  16. Frame rate                               : 23.976 (24000/1001/189150) FPS
  17. Color space                              : YUV
  18. Chroma subsampling                       : 4:2:0
  19. Bit depth                                : 8 bits
  20. Scan type                                : Progressive
  21. Bits/(Pixel*Frame)                       : 0.316
  22. Stream size                              : 4.45 GiB (82%)
  23. Writing library                          : x264 core 160 r3000 33f9e14
  24. Encoding settings                        : cabac=1 / ref=5 / deblock=1:-2:-2 / analyse=0x3:0x133 / me=umh / subme=9 / psy=1 / psy_rd=1.00:0.00 / mixed_ref=1 / me_range=16 / chroma_me=1 / trellis=2 / 8x8dct=1 / cqm=0 / deadzone=21,11 / fast_pskip=0 / chroma_qp_offset=-2 / threads=12 / lookahead_threads=1 / sliced_threads=0 / nr=0 / decimate=1 / interlaced=0 / bluray_compat=0 / constrained_intra=0 / bframes=3 / b_pyramid=2 / b_adapt=2 / b_bias=0 / direct=3 / weightb=1 / open_gop=0 / weightp=2 / keyint=240 / keyint_min=23 / scenecut=40 / intra_refresh=0 / rc_lookahead=50 / rc=2pass / mbtree=1 / bitrate=6673 / ratetol=1.0 / qcomp=0.60 / qpmin=0 / qpmax=69 / qpstep=4 / cplxblur=20.0 / qblur=0.5 / vbv_maxrate=62500 / vbv_bufsize=78125 / nal_hrd=none / filler=0 / ip_ratio=1.40 / aq=1:0.70
  25. Default                                  : Yes
  26. Forced                                   : No

  27. Audio
  28. ID                                       : 2
  29. Format                                   : DTS
  30. Format/Info                              : Digital Theater Systems
  31. Codec ID                                 : A_DTS
  32. Duration                                 : 1 h 35 min
  33. Bit rate mode                            : Constant
  34. Bit rate                                 : 1 509 kb/s
  35. Channel(s)                               : 6 channels
  36. Channel layout                           : C L R Ls Rs LFE
  37. Sampling rate                            : 48.0 kHz
  38. Frame rate                               : 93.750 FPS (512 SPF)
  39. Bit depth                                : 24 bits
  40. Compression mode                         : Lossy
  41. Stream size                              : 1.01 GiB (18%)
  42. Language                                 : English
  43. Default                                  : Yes
  44. Forced                                   : No

  45. Text
  46. ID                                       : 3
  47. Format                                   : UTF-8
  48. Codec ID                                 : S_TEXT/UTF8
  49. Codec ID/Info                            : UTF-8 Plain Text
  50. Duration                                 : 51 min 34 s
  51. Bit rate                                 : 2 b/s
  52. Count of elements                        : 36
  53. Stream size                              : 864 Bytes (0%)
  54. Title                                    : Forced
  55. Language                                 : English
  56. Default                                  : Yes
  57. Forced                                   : Yes

  58. Menu
  59. 00:00:00.000                             : en:Chapter 01
  60. 00:06:34.185                             : en:Chapter 02
  61. 00:17:48.734                             : en:Chapter 03
  62. 00:28:50.771                             : en:Chapter 04
  63. 00:40:18.750                             : en:Chapter 05
  64. 00:50:21.227                             : en:Chapter 06
  65. 01:02:46.638                             : en:Chapter 07
  66. 01:15:54.800                             : en:Chapter 08
  67. 01:23:42.226                             : en:Chapter 09
  68. 01:30:38.683                             : en:Chapter 10
复制代码

威龍猛探 The.Protector.1985.REMASTERED.720p.BluRay.x264-CREEPSHOW 5.46GB-2.png






回复

使用道具 举报

蓝光币
3738
发表于 2020-4-25 01:11:32 | 显示全部楼层
谢谢楼主分享
回复 支持 反对

使用道具 举报

蓝光币
2
发表于 2020-5-9 15:17:23 | 显示全部楼层
楼主太厉害了!楼主
回复 支持 反对

使用道具 举报

懒得打字嘛,点击右侧快捷回复 【右侧内容,后台自定义】
您需要登录后才可以回帖 登录 | 立即加入

本版积分规则

Archiver|小黑屋| 蓝光电影网 |网站地图

Copyright © 2021 Comsenz Inc. Powered by 蓝光电影网

蓝光电影网

本站内容由用户自主分享和转载自互联网,转载目的在于传递更多信息,并不代表本网赞同其观点和对其真实性负责。

如有侵权、违反国家法律政策行为,请联系我们,我们会第一时间及时清除和处理!

举报反馈邮箱:[email protected]

快速回复 返回顶部 返回列表