找回密码

蓝光电影网

查看: 719|回复: 9

[2160p-WEB] 野兽男孩的故事 Beastie.Boys.Story.2020.2160p.ATVP.WEB-DL.x265.10bit.SDR.DDP5.1.Atmos-SECRECY 17.79GB

[复制链接]
蓝光币
515
发表于 2020-4-24 14:39:47 | 显示全部楼层 |阅读模式
野兽男孩的故事 Beastie.Boys.Story.2020.2160p.ATVP.WEB-DL.x265.10bit.SDR.DDP5.1.Atmos-SECRECY 17.79GB-1.png

译  名 野兽男孩的故事
片  名 Beastie Boys Story
年  代 2020
产  地 美国
类  别 记载片
语  言 英语
上映日期 2020-04-02(美国)
IMDb评分  9.0/10 from 5 users
IMDb链接  https://www.imdb.com/title/tt11615290
豆瓣评分 0/10 from 0 users
豆瓣链接 https://movie.douban.com/subject/34950452/
导  演 斯派克·琼斯 Spike Jonze
编  剧 亚当·霍罗维茨 Adam Horovitz / 斯派克·琼斯 Spike Jonze / 麦克·D Mike D
主  演 亚当·霍罗维茨 Adam Horovitz
       麦克·D Mike D


标  签 记载片 | 音乐 | 2020 | 美国 | SpikeJonze | 斯派克·琼斯

简  介  

  斯派克·琼斯执导的聚焦Beastie Boys的记载片[野兽男孩的故事]释出正式预告!剧本将由琼斯和团体成员Mike Diamond和Adam Horovitz撰写。琼斯曾为其专辑热单《Sabotage》执导过MV。本片被宣传为一次现场记载片体验,侧重于该团体的历史和业绩以及其私密的小我故事。 该项目源于Diamond和Horowitz在2018年10月出书的《Beastie Boys Book》一书。本片将于4月24日登陆Apple TV+,别的还有特供版本将提早在IMAX影院4月2日限制开画。
  1. Video
  2. ID                                       : 1
  3. Format                                   : HEVC
  4. Format/Info                              : High Efficiency Video Coding
  5. Format profile                           : Main [email protected]@High
  6. Codec ID                                 : V_MPEGH/ISO/HEVC
  7. Duration                                 : 1 h 59 min
  8. Bit rate                                 : 20.4 Mb/s
  9. Width                                    : 3 840 pixels
  10. Height                                   : 2 160 pixels
  11. Display aspect ratio                     : 16:9
  12. Frame rate mode                          : Constant
  13. Frame rate                               : 23.976 (24000/1001/189150) FPS
  14. Color space                              : YUV
  15. Chroma subsampling                       : 4:2:0
  16. Bit depth                                : 10 bits
  17. Bits/(Pixel*Frame)                       : 0.102
  18. Stream size                              : 17.0 GiB (96%)
  19. Default                                  : Yes
  20. Forced                                   : No
  21. Color range                              : Limited
  22. Color primaries                          : BT.709
  23. Transfer characteristics                 : BT.709
  24. Matrix coefficients                      : BT.709

  25. Audio
  26. ID                                       : 2
  27. Format                                   : E-AC-3 JOC
  28. Format/Info                              : Enhanced AC-3 with Joint Object Coding
  29. Commercial name                          : Dolby Digital Plus with Dolby Atmos
  30. Codec ID                                 : A_EAC3
  31. Duration                                 : 1 h 59 min
  32. Bit rate mode                            : Constant
  33. Bit rate                                 : 768 kb/s
  34. Channel(s)                               : 6 channels
  35. Channel layout                           : L R C LFE Ls Rs
  36. Sampling rate                            : 48.0 kHz
  37. Frame rate                               : 31.250 FPS (1536 SPF)
  38. Compression mode                         : Lossy
  39. Stream size                              : 656 MiB (4%)
  40. Title                                    : English
  41. Language                                 : English
  42. Service kind                             : Complete Main
  43. Default                                  : Yes
  44. Forced                                   : No
  45. Complexity index                         : 16
  46. Number of dynamic objects                : 15
  47. Bed channel count                        : 1 channel
  48. Bed channel configuration                : LFE

  49. Text #1
  50. ID                                       : 3
  51. Format                                   : UTF-8
  52. Codec ID                                 : S_TEXT/UTF8
  53. Codec ID/Info                            : UTF-8 Plain Text
  54. Duration                                 : 1 h 56 min
  55. Bit rate                                 : 111 b/s
  56. Count of elements                        : 2205
  57. Stream size                              : 95.3 KiB (0%)
  58. Title                                    : English
  59. Language                                 : English
  60. Default                                  : No
  61. Forced                                   : No

  62. Text #2
  63. ID                                       : 4
  64. Format                                   : UTF-8
  65. Codec ID                                 : S_TEXT/UTF8
  66. Codec ID/Info                            : UTF-8 Plain Text
  67. Duration                                 : 2 s 169 ms
  68. Bit rate                                 : 140 b/s
  69. Count of elements                        : 1
  70. Stream size                              : 38.0 Bytes (0%)
  71. Title                                    : English [Forced]
  72. Language                                 : English
  73. Default                                  : No
  74. Forced                                   : Yes

  75. Text #3
  76. ID                                       : 5
  77. Format                                   : UTF-8
  78. Codec ID                                 : S_TEXT/UTF8
  79. Codec ID/Info                            : UTF-8 Plain Text
  80. Duration                                 : 1 h 57 min
  81. Bit rate                                 : 118 b/s
  82. Count of elements                        : 2333
  83. Stream size                              : 102 KiB (0%)
  84. Title                                    : English [SDH]
  85. Language                                 : English
  86. Default                                  : No
  87. Forced                                   : No

  88. Text #4
  89. ID                                       : 6
  90. Format                                   : UTF-8
  91. Codec ID                                 : S_TEXT/UTF8
  92. Codec ID/Info                            : UTF-8 Plain Text
  93. Duration                                 : 1 h 58 min
  94. Bit rate                                 : 163 b/s
  95. Count of elements                        : 2242
  96. Stream size                              : 142 KiB (0%)
  97. Title                                    : Arabic
  98. Language                                 : Arabic
  99. Default                                  : No
  100. Forced                                   : No

  101. Text #5
  102. ID                                       : 7
  103. Format                                   : UTF-8
  104. Codec ID                                 : S_TEXT/UTF8
  105. Codec ID/Info                            : UTF-8 Plain Text
  106. Duration                                 : 1 h 58 min
  107. Bit rate                                 : 144 b/s
  108. Count of elements                        : 2093
  109. Stream size                              : 126 KiB (0%)
  110. Title                                    : Bulgarian
  111. Language                                 : Bulgarian
  112. Default                                  : No
  113. Forced                                   : No

  114. Text #6
  115. ID                                       : 8
  116. Format                                   : UTF-8
  117. Codec ID                                 : S_TEXT/UTF8
  118. Codec ID/Info                            : UTF-8 Plain Text
  119. Duration                                 : 1 h 58 min
  120. Bit rate                                 : 91 b/s
  121. Count of elements                        : 2190
  122. Stream size                              : 79.8 KiB (0%)
  123. Title                                    : Czech
  124. Language                                 : Czech
  125. Default                                  : No
  126. Forced                                   : No

  127. Text #7
  128. ID                                       : 9
  129. Format                                   : UTF-8
  130. Codec ID                                 : S_TEXT/UTF8
  131. Codec ID/Info                            : UTF-8 Plain Text
  132. Duration                                 : 1 h 58 min
  133. Bit rate                                 : 90 b/s
  134. Count of elements                        : 1686
  135. Stream size                              : 78.9 KiB (0%)
  136. Title                                    : Danish
  137. Language                                 : Danish
  138. Default                                  : No
  139. Forced                                   : No

  140. Text #8
  141. ID                                       : 10
  142. Format                                   : UTF-8
  143. Codec ID                                 : S_TEXT/UTF8
  144. Codec ID/Info                            : UTF-8 Plain Text
  145. Duration                                 : 1 h 58 min
  146. Bit rate                                 : 95 b/s
  147. Count of elements                        : 2189
  148. Stream size                              : 83.4 KiB (0%)
  149. Title                                    : Dutch
  150. Language                                 : Dutch
  151. Default                                  : No
  152. Forced                                   : No

  153. Text #9
  154. ID                                       : 11
  155. Format                                   : UTF-8
  156. Codec ID                                 : S_TEXT/UTF8
  157. Codec ID/Info                            : UTF-8 Plain Text
  158. Duration                                 : 1 h 58 min
  159. Bit rate                                 : 90 b/s
  160. Count of elements                        : 2210
  161. Stream size                              : 78.8 KiB (0%)
  162. Title                                    : Estonian
  163. Language                                 : Estonian
  164. Default                                  : No
  165. Forced                                   : No

  166. Text #10
  167. ID                                       : 12
  168. Format                                   : UTF-8
  169. Codec ID                                 : S_TEXT/UTF8
  170. Codec ID/Info                            : UTF-8 Plain Text
  171. Duration                                 : 1 h 58 min
  172. Bit rate                                 : 93 b/s
  173. Count of elements                        : 2197
  174. Stream size                              : 81.0 KiB (0%)
  175. Title                                    : Finnish
  176. Language                                 : Finnish
  177. Default                                  : No
  178. Forced                                   : No

  179. Text #11
  180. ID                                       : 13
  181. Format                                   : UTF-8
  182. Codec ID                                 : S_TEXT/UTF8
  183. Codec ID/Info                            : UTF-8 Plain Text
  184. Duration                                 : 1 h 58 min
  185. Bit rate                                 : 98 b/s
  186. Count of elements                        : 2074
  187. Stream size                              : 86.0 KiB (0%)
  188. Title                                    : French
  189. Language                                 : French
  190. Default                                  : No
  191. Forced                                   : No

  192. Text #12
  193. ID                                       : 14
  194. Format                                   : UTF-8
  195. Codec ID                                 : S_TEXT/UTF8
  196. Codec ID/Info                            : UTF-8 Plain Text
  197. Duration                                 : 1 h 58 min
  198. Bit rate                                 : 98 b/s
  199. Count of elements                        : 2075
  200. Stream size                              : 86.0 KiB (0%)
  201. Title                                    : French Canadian
  202. Language                                 : French
  203. Default                                  : No
  204. Forced                                   : No

  205. Text #13
  206. ID                                       : 15
  207. Format                                   : UTF-8
  208. Codec ID                                 : S_TEXT/UTF8
  209. Codec ID/Info                            : UTF-8 Plain Text
  210. Duration                                 : 1 h 58 min
  211. Bit rate                                 : 98 b/s
  212. Count of elements                        : 2075
  213. Stream size                              : 86.0 KiB (0%)
  214. Title                                    : Canadian French
  215. Language                                 : French
  216. Default                                  : No
  217. Forced                                   : No

  218. Text #14
  219. ID                                       : 16
  220. Format                                   : UTF-8
  221. Codec ID                                 : S_TEXT/UTF8
  222. Codec ID/Info                            : UTF-8 Plain Text
  223. Duration                                 : 1 h 58 min
  224. Bit rate                                 : 97 b/s
  225. Count of elements                        : 2197
  226. Stream size                              : 84.8 KiB (0%)
  227. Title                                    : German
  228. Language                                 : German
  229. Default                                  : No
  230. Forced                                   : No

  231. Text #15
  232. ID                                       : 17
  233. Format                                   : UTF-8
  234. Codec ID                                 : S_TEXT/UTF8
  235. Codec ID/Info                            : UTF-8 Plain Text
  236. Duration                                 : 1 h 58 min
  237. Bit rate                                 : 169 b/s
  238. Count of elements                        : 2228
  239. Stream size                              : 147 KiB (0%)
  240. Title                                    : Greek
  241. Language                                 : Greek
  242. Default                                  : No
  243. Forced                                   : No

  244. Text #16
  245. ID                                       : 18
  246. Format                                   : UTF-8
  247. Codec ID                                 : S_TEXT/UTF8
  248. Codec ID/Info                            : UTF-8 Plain Text
  249. Duration                                 : 1 h 58 min
  250. Bit rate                                 : 144 b/s
  251. Count of elements                        : 2248
  252. Stream size                              : 126 KiB (0%)
  253. Title                                    : Hebrew
  254. Language                                 : Hebrew
  255. Default                                  : No
  256. Forced                                   : No

  257. Text #17
  258. ID                                       : 19
  259. Format                                   : UTF-8
  260. Codec ID                                 : S_TEXT/UTF8
  261. Codec ID/Info                            : UTF-8 Plain Text
  262. Duration                                 : 1 h 58 min
  263. Bit rate                                 : 268 b/s
  264. Count of elements                        : 2248
  265. Stream size                              : 234 KiB (0%)
  266. Title                                    : Hindi
  267. Language                                 : Hindi
  268. Default                                  : No
  269. Forced                                   : No

  270. Text #18
  271. ID                                       : 20
  272. Format                                   : UTF-8
  273. Codec ID                                 : S_TEXT/UTF8
  274. Codec ID/Info                            : UTF-8 Plain Text
  275. Duration                                 : 1 h 58 min
  276. Bit rate                                 : 106 b/s
  277. Count of elements                        : 2174
  278. Stream size                              : 93.0 KiB (0%)
  279. Title                                    : Hungarian
  280. Language                                 : Hungarian
  281. Default                                  : No
  282. Forced                                   : No

  283. Text #19
  284. ID                                       : 21
  285. Format                                   : UTF-8
  286. Codec ID                                 : S_TEXT/UTF8
  287. Codec ID/Info                            : UTF-8 Plain Text
  288. Duration                                 : 1 h 58 min
  289. Bit rate                                 : 97 b/s
  290. Count of elements                        : 2015
  291. Stream size                              : 84.8 KiB (0%)
  292. Title                                    : Indonesian
  293. Language                                 : Indonesian
  294. Default                                  : No
  295. Forced                                   : No

  296. Text #20
  297. ID                                       : 22
  298. Format                                   : UTF-8
  299. Codec ID                                 : S_TEXT/UTF8
  300. Codec ID/Info                            : UTF-8 Plain Text
  301. Duration                                 : 1 h 58 min
  302. Bit rate                                 : 89 b/s
  303. Count of elements                        : 2066
  304. Stream size                              : 77.5 KiB (0%)
  305. Title                                    : Italian
  306. Language                                 : Italian
  307. Default                                  : No
  308. Forced                                   : No

  309. Text #21
  310. ID                                       : 23
  311. Format                                   : UTF-8
  312. Codec ID                                 : S_TEXT/UTF8
  313. Codec ID/Info                            : UTF-8 Plain Text
  314. Duration                                 : 1 h 58 min
  315. Bit rate                                 : 83 b/s
  316. Count of elements                        : 1908
  317. Stream size                              : 72.5 KiB (0%)
  318. Title                                    : Japanese
  319. Language                                 : Japanese
  320. Default                                  : No
  321. Forced                                   : No

  322. Text #22
  323. ID                                       : 24
  324. Format                                   : UTF-8
  325. Codec ID                                 : S_TEXT/UTF8
  326. Codec ID/Info                            : UTF-8 Plain Text
  327. Duration                                 : 1 h 58 min
  328. Bit rate                                 : 102 b/s
  329. Count of elements                        : 2220
  330. Stream size                              : 89.3 KiB (0%)
  331. Title                                    : Lithuanian
  332. Language                                 : Lithuanian
  333. Default                                  : No
  334. Forced                                   : No

  335. Text #23
  336. ID                                       : 25
  337. Format                                   : UTF-8
  338. Codec ID                                 : S_TEXT/UTF8
  339. Codec ID/Info                            : UTF-8 Plain Text
  340. Duration                                 : 1 h 58 min
  341. Bit rate                                 : 105 b/s
  342. Count of elements                        : 2236
  343. Stream size                              : 91.9 KiB (0%)
  344. Title                                    : Latvian
  345. Language                                 : Latvian
  346. Default                                  : No
  347. Forced                                   : No

  348. Text #24
  349. ID                                       : 26
  350. Format                                   : UTF-8
  351. Codec ID                                 : S_TEXT/UTF8
  352. Codec ID/Info                            : UTF-8 Plain Text
  353. Duration                                 : 1 h 58 min
  354. Bit rate                                 : 106 b/s
  355. Count of elements                        : 2227
  356. Stream size                              : 92.8 KiB (0%)
  357. Title                                    : Malay
  358. Language                                 : Malay
  359. Default                                  : No
  360. Forced                                   : No

  361. Text #25
  362. ID                                       : 27
  363. Format                                   : UTF-8
  364. Codec ID                                 : S_TEXT/UTF8
  365. Codec ID/Info                            : UTF-8 Plain Text
  366. Duration                                 : 1 h 58 min
  367. Bit rate                                 : 95 b/s
  368. Count of elements                        : 2244
  369. Stream size                              : 83.3 KiB (0%)
  370. Title                                    : Simplified Chinese
  371. Language                                 : Chinese
  372. Default                                  : No
  373. Forced                                   : No

  374. Text #26
  375. ID                                       : 28
  376. Format                                   : UTF-8
  377. Codec ID                                 : S_TEXT/UTF8
  378. Codec ID/Info                            : UTF-8 Plain Text
  379. Duration                                 : 1 h 58 min
  380. Bit rate                                 : 95 b/s
  381. Count of elements                        : 2246
  382. Stream size                              : 83.4 KiB (0%)
  383. Title                                    : Traditional Chinese
  384. Language                                 : Chinese
  385. Default                                  : No
  386. Forced                                   : No

  387. Text #27
  388. ID                                       : 29
  389. Format                                   : UTF-8
  390. Codec ID                                 : S_TEXT/UTF8
  391. Codec ID/Info                            : UTF-8 Plain Text
  392. Duration                                 : 1 h 58 min
  393. Bit rate                                 : 100 b/s
  394. Count of elements                        : 2246
  395. Stream size                              : 87.6 KiB (0%)
  396. Title                                    : (Yue Chinese)
  397. Language                                 : Chinese
  398. Default                                  : No
  399. Forced                                   : No

  400. Text #28
  401. ID                                       : 30
  402. Format                                   : UTF-8
  403. Codec ID                                 : S_TEXT/UTF8
  404. Codec ID/Info                            : UTF-8 Plain Text
  405. Duration                                 : 1 h 58 min
  406. Bit rate                                 : 96 b/s
  407. Count of elements                        : 2198
  408. Stream size                              : 84.3 KiB (0%)
  409. Title                                    : Polish
  410. Language                                 : Polish
  411. Default                                  : No
  412. Forced                                   : No

  413. Text #29
  414. ID                                       : 31
  415. Format                                   : UTF-8
  416. Codec ID                                 : S_TEXT/UTF8
  417. Codec ID/Info                            : UTF-8 Plain Text
  418. Duration                                 : 1 h 58 min
  419. Bit rate                                 : 100 b/s
  420. Count of elements                        : 2165
  421. Stream size                              : 87.6 KiB (0%)
  422. Title                                    : Portuguese
  423. Language                                 : Portuguese
  424. Default                                  : No
  425. Forced                                   : No

  426. Text #30
  427. ID                                       : 32
  428. Format                                   : UTF-8
  429. Codec ID                                 : S_TEXT/UTF8
  430. Codec ID/Info                            : UTF-8 Plain Text
  431. Duration                                 : 1 h 58 min
  432. Bit rate                                 : 92 b/s
  433. Count of elements                        : 2226
  434. Stream size                              : 80.7 KiB (0%)
  435. Title                                    : Brazilian Portuguese
  436. Language                                 : Portuguese
  437. Default                                  : No
  438. Forced                                   : No

  439. Text #31
  440. ID                                       : 33
  441. Format                                   : UTF-8
  442. Codec ID                                 : S_TEXT/UTF8
  443. Codec ID/Info                            : UTF-8 Plain Text
  444. Duration                                 : 1 h 58 min
  445. Bit rate                                 : 161 b/s
  446. Count of elements                        : 2238
  447. Stream size                              : 140 KiB (0%)
  448. Title                                    : Russian
  449. Language                                 : Russian
  450. Default                                  : No
  451. Forced                                   : No

  452. Text #32
  453. ID                                       : 34
  454. Format                                   : UTF-8
  455. Codec ID                                 : S_TEXT/UTF8
  456. Codec ID/Info                            : UTF-8 Plain Text
  457. Duration                                 : 1 h 58 min
  458. Bit rate                                 : 96 b/s
  459. Count of elements                        : 2229
  460. Stream size                              : 84.1 KiB (0%)
  461. Title                                    : Slovak
  462. Language                                 : Slovak
  463. Default                                  : No
  464. Forced                                   : No

  465. Text #33
  466. ID                                       : 35
  467. Format                                   : UTF-8
  468. Codec ID                                 : S_TEXT/UTF8
  469. Codec ID/Info                            : UTF-8 Plain Text
  470. Duration                                 : 1 h 58 min
  471. Bit rate                                 : 81 b/s
  472. Count of elements                        : 2108
  473. Stream size                              : 70.8 KiB (0%)
  474. Title                                    : Slovenian
  475. Language                                 : Slovenian
  476. Default                                  : No
  477. Forced                                   : No

  478. Text #34
  479. ID                                       : 36
  480. Format                                   : UTF-8
  481. Codec ID                                 : S_TEXT/UTF8
  482. Codec ID/Info                            : UTF-8 Plain Text
  483. Duration                                 : 1 h 58 min
  484. Bit rate                                 : 96 b/s
  485. Count of elements                        : 2234
  486. Stream size                              : 84.2 KiB (0%)
  487. Title                                    : Latin America Spanish
  488. Language                                 : Spanish
  489. Default                                  : No
  490. Forced                                   : No

  491. Text #35
  492. ID                                       : 37
  493. Format                                   : UTF-8
  494. Codec ID                                 : S_TEXT/UTF8
  495. Codec ID/Info                            : UTF-8 Plain Text
  496. Duration                                 : 1 h 58 min
  497. Bit rate                                 : 106 b/s
  498. Count of elements                        : 2210
  499. Stream size                              : 93.0 KiB (0%)
  500. Title                                    : European Spanish
  501. Language                                 : Spanish
  502. Default                                  : No
  503. Forced                                   : No

  504. Text #36
  505. ID                                       : 38
  506. Format                                   : UTF-8
  507. Codec ID                                 : S_TEXT/UTF8
  508. Codec ID/Info                            : UTF-8 Plain Text
  509. Duration                                 : 1 h 58 min
  510. Bit rate                                 : 90 b/s
  511. Count of elements                        : 2217
  512. Stream size                              : 78.6 KiB (0%)
  513. Title                                    : Swedish
  514. Language                                 : Swedish
  515. Default                                  : No
  516. Forced                                   : No

  517. Text #37
  518. ID                                       : 39
  519. Format                                   : UTF-8
  520. Codec ID                                 : S_TEXT/UTF8
  521. Codec ID/Info                            : UTF-8 Plain Text
  522. Duration                                 : 1 h 58 min
  523. Bit rate                                 : 319 b/s
  524. Count of elements                        : 2247
  525. Stream size                              : 278 KiB (0%)
  526. Title                                    : Tamil
  527. Language                                 : Tamil
  528. Default                                  : No
  529. Forced                                   : No

  530. Text #38
  531. ID                                       : 40
  532. Format                                   : UTF-8
  533. Codec ID                                 : S_TEXT/UTF8
  534. Codec ID/Info                            : UTF-8 Plain Text
  535. Duration                                 : 1 h 58 min
  536. Bit rate                                 : 316 b/s
  537. Count of elements                        : 2246
  538. Stream size                              : 275 KiB (0%)
  539. Title                                    : Telugu
  540. Language                                 : Telugu
  541. Default                                  : No
  542. Forced                                   : No

  543. Text #39
  544. ID                                       : 41
  545. Format                                   : UTF-8
  546. Codec ID                                 : S_TEXT/UTF8
  547. Codec ID/Info                            : UTF-8 Plain Text
  548. Duration                                 : 1 h 58 min
  549. Bit rate                                 : 256 b/s
  550. Count of elements                        : 2246
  551. Stream size                              : 224 KiB (0%)
  552. Title                                    : Thai
  553. Language                                 : Thai
  554. Default                                  : No
  555. Forced                                   : No

  556. Text #40
  557. ID                                       : 42
  558. Format                                   : UTF-8
  559. Codec ID                                 : S_TEXT/UTF8
  560. Codec ID/Info                            : UTF-8 Plain Text
  561. Duration                                 : 1 h 58 min
  562. Bit rate                                 : 152 b/s
  563. Count of elements                        : 2238
  564. Stream size                              : 133 KiB (0%)
  565. Title                                    : Ukrainian
  566. Language                                 : Ukrainian
  567. Default                                  : No
  568. Forced                                   : No

  569. Text #41
  570. ID                                       : 43
  571. Format                                   : UTF-8
  572. Codec ID                                 : S_TEXT/UTF8
  573. Codec ID/Info                            : UTF-8 Plain Text
  574. Duration                                 : 1 h 58 min
  575. Bit rate                                 : 122 b/s
  576. Count of elements                        : 2057
  577. Stream size                              : 106 KiB (0%)
  578. Title                                    : Vietnamese
  579. Language                                 : Vietnamese
  580. Default                                  : No
  581. Forced                                   : No
复制代码

野兽男孩的故事 Beastie.Boys.Story.2020.2160p.ATVP.WEB-DL.x265.10bit.SDR.DDP5.1.Atmos-SECRECY 17.79GB-2.png 野兽男孩的故事 Beastie.Boys.Story.2020.2160p.ATVP.WEB-DL.x265.10bit.SDR.DDP5.1.Atmos-SECRECY 17.79GB-3.png 野兽男孩的故事 Beastie.Boys.Story.2020.2160p.ATVP.WEB-DL.x265.10bit.SDR.DDP5.1.Atmos-SECRECY 17.79GB-4.png






回复

使用道具 举报

蓝光币
1294
发表于 2020-4-26 16:52:56 | 显示全部楼层

这个帖子不回对不起自己!我想我是一天也不能离开蓝光电影网
回复 支持 反对

使用道具 举报

懒得打字嘛,点击右侧快捷回复 【右侧内容,后台自定义】
您需要登录后才可以回帖 登录 | 立即加入

本版积分规则

Archiver|小黑屋| 蓝光电影网 |网站地图

Copyright © 2021 Comsenz Inc. Powered by 蓝光电影网

蓝光电影网

本站内容由用户自主分享和转载自互联网,转载目的在于传递更多信息,并不代表本网赞同其观点和对其真实性负责。

如有侵权、违反国家法律政策行为,请联系我们,我们会第一时间及时清除和处理!

举报反馈邮箱:[email protected]

快速回复 返回顶部 返回列表