找回密码

蓝光电影网

查看: 413|回复: 9

[惊悚] 风暴 The.Wind.1986.1080p.BluRay.x264-SPOOKS 11.89GB

[复制链接]
蓝光币
515
发表于 2020-4-24 23:15:17 | 显示全部楼层 |阅读模式
MV5BNTY5Y2QwYWItYzM0YS00MGI1LWFlOTgtN2VmY2ZkNmU2ZWYzXkEyXkFqcGdeQXVyMTQxNzMzNDI@._V1_.jpg

译  名 风暴
片  名 The Wind
年  代 1987
产  地 美国
类  别 惊悚
语  言 英语
上映日期 1987-07-23
IMDb评分  5.0/10 from 441 users
IMDb链接  https://www.imdb.com/title/tt0094327
豆瓣评分 0/10 from 0 users
豆瓣链接 https://movie.douban.com/subject/1293734/
片  长 92 分钟
导  演 尼科·马斯托拉基斯 Nico Mastorakis
编  剧 尼科·马斯托拉基斯 Nico Mastorakis
主  演 Meg Foster


标  签 美国电影 | 惊悚 | 可骇 | 美国 | 妖妖舞 | 国外电影

简  介  

  暂无相关剧情先容
  1. Video
  2. ID                                       : 1
  3. Format                                   : AVC
  4. Format/Info                              : Advanced Video Codec
  5. Format profile                           : [email protected]
  6. Format settings                          : CABAC / 4 Ref Frames
  7. Format settings, CABAC                   : Yes
  8. Format settings, Reference frames        : 4 frames
  9. Codec ID                                 : V_MPEG4/ISO/AVC
  10. Duration                                 : 1 h 32 min
  11. Bit rate                                 : 14.0 Mb/s
  12. Width                                    : 1 920 pixels
  13. Height                                   : 1 038 pixels
  14. Display aspect ratio                     : 1.85:1
  15. Frame rate mode                          : Constant
  16. Frame rate                               : 23.976 (24000/1001/189150) FPS
  17. Color space                              : YUV
  18. Chroma subsampling                       : 4:2:0
  19. Bit depth                                : 8 bits
  20. Scan type                                : Progressive
  21. Bits/(Pixel*Frame)                       : 0.293
  22. Stream size                              : 9.00 GiB (76%)
  23. Writing library                          : x264 core 160 r3000 33f9e14
  24. Encoding settings                        : cabac=1 / ref=4 / deblock=1:-3:-3 / analyse=0x3:0x133 / me=umh / subme=10 / psy=1 / psy_rd=1.50:0.15 / mixed_ref=1 / me_range=24 / chroma_me=1 / trellis=2 / 8x8dct=1 / cqm=0 / deadzone=21,11 / fast_pskip=0 / chroma_qp_offset=-3 / threads=24 / lookahead_threads=4 / sliced_threads=0 / nr=0 / decimate=0 / interlaced=0 / bluray_compat=0 / constrained_intra=0 / bframes=8 / b_pyramid=2 / b_adapt=2 / b_bias=0 / direct=3 / weightb=1 / open_gop=0 / weightp=2 / keyint=250 / keyint_min=23 / scenecut=40 / intra_refresh=0 / rc=crf / mbtree=0 / crf=21.0 / qcomp=0.60 / qpmin=0 / qpmax=69 / qpstep=4 / ip_ratio=1.40 / pb_ratio=1.30 / aq=3:0.50
  25. Default                                  : Yes
  26. Forced                                   : No
  27. Color range                              : Limited
  28. Matrix coefficients                      : BT.709

  29. Audio
  30. ID                                       : 2
  31. Format                                   : DTS XLL
  32. Format/Info                              : Digital Theater Systems
  33. Commercial name                          : DTS-HD Master Audio
  34. Codec ID                                 : A_DTS
  35. Duration                                 : 1 h 32 min
  36. Bit rate mode                            : Variable
  37. Bit rate                                 : 4 481 kb/s
  38. Channel(s)                               : 6 channels
  39. Channel layout                           : C L R Ls Rs LFE
  40. Sampling rate                            : 48.0 kHz
  41. Frame rate                               : 93.750 FPS (512 SPF)
  42. Bit depth                                : 24 bits
  43. Compression mode                         : Lossless
  44. Stream size                              : 2.88 GiB (24%)
  45. Language                                 : English
  46. Default                                  : Yes
  47. Forced                                   : No

  48. Text #1
  49. ID                                       : 3
  50. Format                                   : PGS
  51. Muxing mode                              : zlib
  52. Codec ID                                 : S_HDMV/PGS
  53. Codec ID/Info                            : Picture based subtitle format used on BDs/HD-DVDs
  54. Duration                                 : 1 h 29 min
  55. Bit rate                                 : 19.5 kb/s
  56. Count of elements                        : 1508
  57. Stream size                              : 12.5 MiB (0%)
  58. Language                                 : English
  59. Default                                  : No
  60. Forced                                   : No

  61. Text #2
  62. ID                                       : 4
  63. Format                                   : PGS
  64. Muxing mode                              : zlib
  65. Codec ID                                 : S_HDMV/PGS
  66. Codec ID/Info                            : Picture based subtitle format used on BDs/HD-DVDs
  67. Duration                                 : 1 h 29 min
  68. Bit rate                                 : 16.8 kb/s
  69. Count of elements                        : 1186
  70. Stream size                              : 10.8 MiB (0%)
  71. Language                                 : Greek
  72. Default                                  : No
  73. Forced                                   : No

  74. Menu
  75. 00:00:00.000                             : en:Chapter 01
  76. 00:06:55.707                             : en:Chapter 02
  77. 00:15:40.356                             : en:Chapter 03
  78. 00:22:53.414                             : en:Chapter 04
  79. 00:30:39.212                             : en:Chapter 05
  80. 00:38:28.348                             : en:Chapter 06
  81. 00:47:33.934                             : en:Chapter 07
  82. 00:54:06.243                             : en:Chapter 08
  83. 01:01:30.896                             : en:Chapter 09
  84. 01:10:13.876                             : en:Chapter 10
  85. 01:19:33.852                             : en:Chapter 11
  86. 01:25:29.583                             : en:Chapter 12
复制代码

风暴 The.Wind.1986.1080p.BluRay.x264-SPOOKS 11.89GB-1.png






回复

使用道具 举报

懒得打字嘛,点击右侧快捷回复 【右侧内容,后台自定义】
您需要登录后才可以回帖 登录 | 立即加入

本版积分规则

Archiver|小黑屋| 蓝光电影网 |网站地图

Copyright © 2021 Comsenz Inc. Powered by 蓝光电影网

蓝光电影网

本站内容由用户自主分享和转载自互联网,转载目的在于传递更多信息,并不代表本网赞同其观点和对其真实性负责。

如有侵权、违反国家法律政策行为,请联系我们,我们会第一时间及时清除和处理!

举报反馈邮箱:[email protected]

快速回复 返回顶部 返回列表