找回密码

蓝光电影网

查看: 268|回复: 1

[惊悚] 风暴 The.Wind.1986.720p.BluRay.x264-SPOOKS 5.81GB

[复制链接]
蓝光币
519
发表于 2020-4-24 23:16:58 | 显示全部楼层 |阅读模式
MV5BNTY5Y2QwYWItYzM0YS00MGI1LWFlOTgtN2VmY2ZkNmU2ZWYzXkEyXkFqcGdeQXVyMTQxNzMzNDI@._V1_.jpg

译  名 风暴
片  名 The Wind
年  代 1987
产  地 美国
类  别 惊悚
语  言 英语
上映日期 1987-07-23
IMDb评分  5.0/10 from 441 users
IMDb链接  https://www.imdb.com/title/tt0094327
豆瓣评分 0/10 from 0 users
豆瓣链接 https://movie.douban.com/subject/1293734/
片  长 92 分钟
导  演 尼科·马斯托拉基斯 Nico Mastorakis
编  剧 尼科·马斯托拉基斯 Nico Mastorakis
主  演 Meg Foster


标  签 美国电影 | 惊悚 | 可骇 | 美国 | 妖妖舞 | 国外电影

简  介  

  暂无相关剧情先容
  1. Video
  2. ID                                       : 1
  3. Format                                   : AVC
  4. Format/Info                              : Advanced Video Codec
  5. Format profile                           : [email protected]
  6. Format settings                          : CABAC / 9 Ref Frames
  7. Format settings, CABAC                   : Yes
  8. Format settings, Reference frames        : 9 frames
  9. Codec ID                                 : V_MPEG4/ISO/AVC
  10. Duration                                 : 1 h 32 min
  11. Bit rate                                 : 8 388 kb/s
  12. Width                                    : 1 280 pixels
  13. Height                                   : 692 pixels
  14. Display aspect ratio                     : 1.85:1
  15. Frame rate mode                          : Constant
  16. Frame rate                               : 23.976 (24000/1001/189150) FPS
  17. Color space                              : YUV
  18. Chroma subsampling                       : 4:2:0
  19. Bit depth                                : 8 bits
  20. Scan type                                : Progressive
  21. Bits/(Pixel*Frame)                       : 0.395
  22. Stream size                              : 5.39 GiB (93%)
  23. Writing library                          : x264 core 160 r3000 33f9e14
  24. Encoding settings                        : cabac=1 / ref=9 / deblock=1:-3:-3 / analyse=0x3:0x133 / me=umh / subme=10 / psy=1 / psy_rd=1.50:0.15 / mixed_ref=1 / me_range=24 / chroma_me=1 / trellis=2 / 8x8dct=1 / cqm=0 / deadzone=21,11 / fast_pskip=0 / chroma_qp_offset=-3 / threads=22 / lookahead_threads=3 / sliced_threads=0 / nr=0 / decimate=0 / interlaced=0 / bluray_compat=0 / constrained_intra=0 / bframes=8 / b_pyramid=2 / b_adapt=2 / b_bias=0 / direct=3 / weightb=1 / open_gop=0 / weightp=2 / keyint=250 / keyint_min=23 / scenecut=40 / intra_refresh=0 / rc=crf / mbtree=0 / crf=19.0 / qcomp=0.60 / qpmin=0 / qpmax=69 / qpstep=4 / ip_ratio=1.40 / pb_ratio=1.30 / aq=3:0.50
  25. Default                                  : Yes
  26. Forced                                   : No
  27. Color range                              : Limited
  28. Matrix coefficients                      : BT.709

  29. Audio
  30. ID                                       : 2
  31. Format                                   : AC-3
  32. Format/Info                              : Audio Coding 3
  33. Commercial name                          : Dolby Digital
  34. Codec ID                                 : A_AC3
  35. Duration                                 : 1 h 32 min
  36. Bit rate mode                            : Constant
  37. Bit rate                                 : 640 kb/s
  38. Channel(s)                               : 6 channels
  39. Channel layout                           : L R C LFE Ls Rs
  40. Sampling rate                            : 48.0 kHz
  41. Frame rate                               : 31.250 FPS (1536 SPF)
  42. Bit depth                                : 16 bits
  43. Compression mode                         : Lossy
  44. Stream size                              : 421 MiB (7%)
  45. Language                                 : English
  46. Service kind                             : Complete Main
  47. Default                                  : Yes
  48. Forced                                   : No

  49. Text #1
  50. ID                                       : 3
  51. Format                                   : PGS
  52. Muxing mode                              : zlib
  53. Codec ID                                 : S_HDMV/PGS
  54. Codec ID/Info                            : Picture based subtitle format used on BDs/HD-DVDs
  55. Duration                                 : 1 h 29 min
  56. Bit rate                                 : 19.5 kb/s
  57. Count of elements                        : 1508
  58. Stream size                              : 12.5 MiB (0%)
  59. Language                                 : English
  60. Default                                  : No
  61. Forced                                   : No

  62. Text #2
  63. ID                                       : 4
  64. Format                                   : PGS
  65. Muxing mode                              : zlib
  66. Codec ID                                 : S_HDMV/PGS
  67. Codec ID/Info                            : Picture based subtitle format used on BDs/HD-DVDs
  68. Duration                                 : 1 h 29 min
  69. Bit rate                                 : 16.8 kb/s
  70. Count of elements                        : 1186
  71. Stream size                              : 10.8 MiB (0%)
  72. Language                                 : Greek
  73. Default                                  : No
  74. Forced                                   : No

  75. Menu
  76. 00:00:00.000                             : en:Chapter 01
  77. 00:06:55.707                             : en:Chapter 02
  78. 00:15:40.356                             : en:Chapter 03
  79. 00:22:53.414                             : en:Chapter 04
  80. 00:30:39.212                             : en:Chapter 05
  81. 00:38:28.348                             : en:Chapter 06
  82. 00:47:33.934                             : en:Chapter 07
  83. 00:54:06.243                             : en:Chapter 08
  84. 01:01:30.896                             : en:Chapter 09
  85. 01:10:13.876                             : en:Chapter 10
  86. 01:19:33.852                             : en:Chapter 11
  87. 01:25:29.583                             : en:Chapter 12
复制代码

风暴 The.Wind.1986.720p.BluRay.x264-SPOOKS 5.81GB-1.png






回复

使用道具 举报

蓝光币
1480
发表于 2020-4-25 07:31:19 | 显示全部楼层
太好啦&萬分感謝版主的無私發佈分享%
回复 支持 反对

使用道具 举报

懒得打字嘛,点击右侧快捷回复 【右侧内容,后台自定义】
您需要登录后才可以回帖 登录 | 立即加入

本版积分规则

Archiver|小黑屋| 蓝光电影网 |网站地图

Copyright © 2021 Comsenz Inc. Powered by 蓝光电影网

蓝光电影网

本站内容由用户自主分享和转载自互联网,转载目的在于传递更多信息,并不代表本网赞同其观点和对其真实性负责。

如有侵权、违反国家法律政策行为,请联系我们,我们会第一时间及时清除和处理!

举报反馈邮箱:[email protected]

快速回复 返回顶部 返回列表