找回密码

蓝光电影网

查看: 307|回复: 2

[剧情] 回家 Come.Home.2011.1080p.BluRay.x264-HD4U 6.56GB

[复制链接]
蓝光币
511
发表于 2020-4-25 11:59:07 | 显示全部楼层 |阅读模式
回家 Come.Home.2011.1080p.BluRay.x264-HD4U 6.56GB-1.png

译  名 回家
片  名 Til Siste Hinder
年  代 2011
产  地 挪威
类  别 家庭
语  言 挪威语
上映日期 2011
IMDb评分  6.1/10 from 97 users
IMDb链接  https://www.imdb.com/title/tt2042695
豆瓣评分 0/10 from 0 users
豆瓣链接 https://movie.douban.com/subject/10440042/
导  演 Anders ?vergaard
主  演 Marianne Mel?y
       Elise Str?mberg
       Julie Nordhuus
       Marthe Vonheim
       Hanne ?berg


标  签 挪威 | 家庭 | 北欧五国 | 2011

简  介  

  15岁的时髦博客和城市女孩Ida厌恶自己的新生活的每一秒,刚搬到一个小农场,她的怙恃在农村地域挪威北部的Nordland。工作转差当她妈妈逼她满足当地人,使Ida意想到她和她的新情况不很轻易。艾达决议逃走,但工作并不那末好,那末她计划,在返来的路上,她在城镇碰到一匹马Kehilan,忽然有了新的生命意义…
  1. Video
  2. ID                                       : 1
  3. Format                                   : AVC
  4. Format/Info                              : Advanced Video Codec
  5. Format profile                           : [email protected]
  6. Format settings                          : CABAC / 5 Ref Frames
  7. Format settings, CABAC                   : Yes
  8. Format settings, Reference frames        : 5 frames
  9. Muxing mode                              : Header stripping
  10. Codec ID                                 : V_MPEG4/ISO/AVC
  11. Duration                                 : 1 h 24 min
  12. Bit rate                                 : 9 601 kb/s
  13. Width                                    : 1 920 pixels
  14. Height                                   : 808 pixels
  15. Display aspect ratio                     : 2.40:1
  16. Frame rate mode                          : Constant
  17. Frame rate                               : 24.000 FPS
  18. Color space                              : YUV
  19. Chroma subsampling                       : 4:2:0
  20. Bit depth                                : 8 bits
  21. Scan type                                : Progressive
  22. Bits/(Pixel*Frame)                       : 0.258
  23. Stream size                              : 5.53 GiB (84%)
  24. Writing library                          : x264 core 119 r2106 07efeb4
  25. Encoding settings                        : cabac=1 / ref=5 / deblock=1:0:0 / analyse=0x3:0x133 / me=umh / subme=7 / psy=1 / psy_rd=1.00:0.00 / mixed_ref=1 / me_range=16 / chroma_me=1 / trellis=1 / 8x8dct=1 / cqm=0 / deadzone=21,11 / fast_pskip=0 / chroma_qp_offset=-2 / threads=12 / sliced_threads=0 / nr=0 / decimate=1 / interlaced=0 / bluray_compat=0 / constrained_intra=0 / bframes=3 / b_pyramid=2 / b_adapt=1 / b_bias=0 / direct=1 / weightb=1 / open_gop=0 / weightp=2 / keyint=250 / keyint_min=23 / scenecut=40 / intra_refresh=0 / rc_lookahead=40 / rc=2pass / mbtree=1 / bitrate=9601 / ratetol=1.0 / qcomp=0.60 / qpmin=0 / qpmax=69 / qpstep=4 / cplxblur=20.0 / qblur=0.5 / ip_ratio=1.40 / aq=1:1.00
  26. Language                                 : Norwegian
  27. Default                                  : Yes
  28. Forced                                   : No

  29. Audio
  30. ID                                       : 2
  31. Format                                   : DTS
  32. Format/Info                              : Digital Theater Systems
  33. Muxing mode                              : Header stripping
  34. Codec ID                                 : A_DTS
  35. Duration                                 : 1 h 24 min
  36. Bit rate mode                            : Constant
  37. Bit rate                                 : 1 509 kb/s
  38. Channel(s)                               : 6 channels
  39. Channel layout                           : C L R Ls Rs LFE
  40. Sampling rate                            : 48.0 kHz
  41. Frame rate                               : 93.750 FPS (512 SPF)
  42. Bit depth                                : 24 bits
  43. Compression mode                         : Lossy
  44. Stream size                              : 912 MiB (14%)
  45. Language                                 : Norwegian
  46. Default                                  : Yes
  47. Forced                                   : No

  48. Text
  49. ID                                       : 3
  50. Format                                   : UTF-8
  51. Codec ID                                 : S_TEXT/UTF8
  52. Codec ID/Info                            : UTF-8 Plain Text
  53. Language                                 : English
  54. Default                                  : Yes
  55. Forced                                   : No
复制代码

回家 Come.Home.2011.1080p.BluRay.x264-HD4U 6.56GB-2.png 回家 Come.Home.2011.1080p.BluRay.x264-HD4U 6.56GB-3.png 回家 Come.Home.2011.1080p.BluRay.x264-HD4U 6.56GB-4.png






回复

使用道具 举报

懒得打字嘛,点击右侧快捷回复 【右侧内容,后台自定义】
您需要登录后才可以回帖 登录 | 立即加入

本版积分规则

Archiver|小黑屋| 蓝光电影网 |网站地图

Copyright © 2021 Comsenz Inc. Powered by 蓝光电影网

蓝光电影网

本站内容由用户自主分享和转载自互联网,转载目的在于传递更多信息,并不代表本网赞同其观点和对其真实性负责。

如有侵权、违反国家法律政策行为,请联系我们,我们会第一时间及时清除和处理!

举报反馈邮箱:[email protected]

快速回复 返回顶部 返回列表