找回密码

蓝光电影网

查看: 207|回复: 1

[剧情] 乡村挽歌 Requiem.For.A.Village.1976.1080p.BluRay.x264-LEVERAGE 4.36GB

[复制链接]
蓝光币
511
发表于 2020-4-25 12:02:01 | 显示全部楼层 |阅读模式
村落挽歌 Requiem.For.A.Village.1976.1080p.BluRay.x264-LEVERAGE 4.36GB-1.png

译  名 村落挽歌
片  名 Requiem for a Village
年  代 1975
产  地 英国
类  别 剧情
语  言 英语
IMDb评分  6.8/10 from 122 users
IMDb链接  https://www.imdb.com/title/tt1877747
豆瓣评分 0/10 from 0 users
豆瓣链接 https://movie.douban.com/subject/6529832/
导  演 David Gladwell
编  剧 David Gladwell

标  签 英国 | DavidGladwell | 超现实 | 英国电影 | BFI | 1975 | Flipside | 1970s

简  介  

  David Gladwell is perhaps best-known for his celebrated work as editor on Lindsay Anderson's If.... and O Lucky Man! Requiem for a Village, along with the four exquisite and startling short films also included in this BFI Flipside Dual Format Edition, reveal him to be an unfairly overlooked director of ground-breaking work.
  The idyllic, rural past of a Suffolk village rises to life in Requiem for a Village (1975) through the memories of an old man who tends a country graveyard. With influences that range from the poet TS Eliot to the artist Stanley Spencer, and using real village residents as amateur actors, the film powerfully suggests that history and memory are ever-present in our lives, regardless of the unrelenting drive towards modernisation.
  This extraordinary, little-seen film, an archetypal Flipside discovery, is preserved in the BFI National Archive and newly transferred in High Definition.
  Writing in the 1975 London Film Festival programme, Lindsay Anderson commented: 'David Gladwell's film is an authentic, lyrical pastoral of absolute and obstinate originality - the work of a unique artist... Requiem for a Village is one of that handful of works which prove that the English poetic genius is fully capable - given the right, rare circumstances - of expressing itself in cinema, as it always has in literature and painting.'
  Since his wide and accomplished career as a film editor, writer and director, David Gladwell has returned to painting. He enjoyed a residency at Lambeth College in South London in 2004-2005 and currently lives and works in South London.
  1. Video
  2. ID                                       : 1
  3. Format                                   : AVC
  4. Format/Info                              : Advanced Video Codec
  5. Format profile                           : [email protected]
  6. Format settings                          : CABAC / 4 Ref Frames
  7. Format settings, CABAC                   : Yes
  8. Format settings, Reference frames        : 4 frames
  9. Codec ID                                 : V_MPEG4/ISO/AVC
  10. Duration                                 : 1 h 9 min
  11. Bit rate                                 : 8 306 kb/s
  12. Width                                    : 1 440 pixels
  13. Height                                   : 1 080 pixels
  14. Display aspect ratio                     : 4:3
  15. Frame rate mode                          : Constant
  16. Frame rate                               : 23.976 (24000/1001/189150) FPS
  17. Color space                              : YUV
  18. Chroma subsampling                       : 4:2:0
  19. Bit depth                                : 8 bits
  20. Scan type                                : Progressive
  21. Bits/(Pixel*Frame)                       : 0.223
  22. Stream size                              : 3.97 GiB (91%)
  23. Writing library                          : x264 core 118 r2085 8a62835
  24. Encoding settings                        : cabac=1 / ref=4 / deblock=1:0:0 / analyse=0x3:0x2 / me=umh / subme=7 / psy=1 / psy_rd=1.00:0.00 / mixed_ref=1 / me_range=16 / chroma_me=1 / trellis=1 / 8x8dct=1 / cqm=0 / deadzone=21,11 / fast_pskip=1 / chroma_qp_offset=-2 / threads=6 / sliced_threads=0 / nr=0 / decimate=1 / interlaced=0 / bluray_compat=0 / constrained_intra=0 / bframes=3 / b_pyramid=2 / b_adapt=1 / b_bias=0 / direct=1 / weightb=0 / open_gop=0 / weightp=2 / keyint=250 / keyint_min=23 / scenecut=40 / intra_refresh=0 / rc=2pass / mbtree=0 / bitrate=8306 / ratetol=1.0 / qcomp=0.60 / qpmin=10 / qpmax=51 / qpstep=4 / cplxblur=20.0 / qblur=0.5 / ip_ratio=1.40 / pb_ratio=1.30 / aq=1:1.00
  25. Language                                 : English
  26. Default                                  : Yes
  27. Forced                                   : No

  28. Audio
  29. ID                                       : 2
  30. Format                                   : AC-3
  31. Format/Info                              : Audio Coding 3
  32. Commercial name                          : Dolby Digital
  33. Codec ID                                 : A_AC3
  34. Duration                                 : 1 h 9 min
  35. Bit rate mode                            : Constant
  36. Bit rate                                 : 640 kb/s
  37. Channel(s)                               : 2 channels
  38. Channel layout                           : L R
  39. Sampling rate                            : 48.0 kHz
  40. Frame rate                               : 31.250 FPS (1536 SPF)
  41. Bit depth                                : 16 bits
  42. Compression mode                         : Lossy
  43. Stream size                              : 320 MiB (7%)
  44. Language                                 : English
  45. Service kind                             : Complete Main
  46. Default                                  : Yes
  47. Forced                                   : No

  48. Text
  49. ID                                       : 3
  50. Format                                   : UTF-8
  51. Codec ID                                 : S_TEXT/UTF8
  52. Codec ID/Info                            : UTF-8 Plain Text
  53. Language                                 : English
  54. Default                                  : Yes
  55. Forced                                   : No
复制代码

村落挽歌 Requiem.For.A.Village.1976.1080p.BluRay.x264-LEVERAGE 4.36GB-2.png 村落挽歌 Requiem.For.A.Village.1976.1080p.BluRay.x264-LEVERAGE 4.36GB-3.png 村落挽歌 Requiem.For.A.Village.1976.1080p.BluRay.x264-LEVERAGE 4.36GB-4.png






回复

使用道具 举报

懒得打字嘛,点击右侧快捷回复 【右侧内容,后台自定义】
您需要登录后才可以回帖 登录 | 立即加入

本版积分规则

Archiver|小黑屋| 蓝光电影网 |网站地图

Copyright © 2021 Comsenz Inc. Powered by 蓝光电影网

蓝光电影网

本站内容由用户自主分享和转载自互联网,转载目的在于传递更多信息,并不代表本网赞同其观点和对其真实性负责。

如有侵权、违反国家法律政策行为,请联系我们,我们会第一时间及时清除和处理!

举报反馈邮箱:[email protected]

快速回复 返回顶部 返回列表