找回密码

蓝光电影网

查看: 605|回复: 2

[动作] 没原因 No.Reason.2010.1080p.BluRay.x264-LiViDiTY 5.46GB

[复制链接]
蓝光币
515
发表于 2020-4-25 12:04:16 | 显示全部楼层 |阅读模式
没缘由 No.Reason.2010.1080p.BluRay.x264-LiViDiTY 5.46GB-1.png

译  名 没缘由
片  名 No Reason
年  代 2010
产  地 德国
类  别 行动
语  言 德语
上映日期 2010
IMDb评分  4.3/10 from 417 users
IMDb链接  https://www.imdb.com/title/tt1601215
豆瓣评分 6.3/10 from 68 users
豆瓣链接 https://movie.douban.com/subject/5156275/
片  长 72分钟
导  演 Olaf Ittenbach
编  剧 Olaf Ittenbach
主  演 Matthias Engel
       Irene Holzfurtner
       Alexander Gamnitzer


标  签 血腥 | 可骇 | 血浆 | 肢体 | 暴力 | 德国 | 惊悚 | 犯罪

简  介  

  Suddenly Jennifer is torn from her comfortable and non-assuming (inconspicuous) life. While planning to move, the young mother and her husband will experience anything but an ordinary day! It all begins with a strange visit from her soon to be ex-neighbour, the postman who mentions an urgent need.
  1. Video
  2. ID                                       : 1
  3. Format                                   : AVC
  4. Format/Info                              : Advanced Video Codec
  5. Format profile                           : [email protected]
  6. Format settings                          : CABAC / 4 Ref Frames
  7. Format settings, CABAC                   : Yes
  8. Format settings, Reference frames        : 4 frames
  9. Codec ID                                 : V_MPEG4/ISO/AVC
  10. Duration                                 : 1 h 13 min
  11. Bit rate                                 : 9 112 kb/s
  12. Width                                    : 1 920 pixels
  13. Height                                   : 1 064 pixels
  14. Display aspect ratio                     : 16:9
  15. Frame rate mode                          : Constant
  16. Frame rate                               : 25.000 FPS
  17. Color space                              : YUV
  18. Chroma subsampling                       : 4:2:0
  19. Bit depth                                : 8 bits
  20. Scan type                                : Progressive
  21. Bits/(Pixel*Frame)                       : 0.178
  22. Stream size                              : 4.58 GiB (84%)
  23. Writing library                          : x264 core 120 r2120 0c7dab9
  24. Encoding settings                        : cabac=1 / ref=4 / deblock=1:0:0 / analyse=0x3:0x113 / me=umh / subme=7 / psy=1 / psy_rd=1.00:0.00 / mixed_ref=1 / me_range=16 / chroma_me=1 / trellis=1 / 8x8dct=1 / cqm=0 / deadzone=21,11 / fast_pskip=0 / chroma_qp_offset=-2 / threads=6 / sliced_threads=0 / nr=0 / decimate=1 / interlaced=0 / bluray_compat=0 / constrained_intra=0 / bframes=3 / b_pyramid=2 / b_adapt=1 / b_bias=0 / direct=1 / weightb=1 / open_gop=0 / weightp=2 / keyint=250 / keyint_min=25 / scenecut=40 / intra_refresh=0 / rc_lookahead=40 / rc=2pass / mbtree=1 / bitrate=9112 / ratetol=1.0 / qcomp=0.60 / qpmin=0 / qpmax=69 / qpstep=4 / cplxblur=20.0 / qblur=0.5 / ip_ratio=1.40 / aq=1:1.00
  25. Default                                  : Yes
  26. Forced                                   : No

  27. Audio
  28. ID                                       : 2
  29. Format                                   : DTS
  30. Format/Info                              : Digital Theater Systems
  31. Codec ID                                 : A_DTS
  32. Duration                                 : 1 h 13 min
  33. Bit rate mode                            : Constant
  34. Bit rate                                 : 1 509 kb/s
  35. Channel(s)                               : 6 channels
  36. Channel layout                           : C L R Ls Rs LFE
  37. Sampling rate                            : 48.0 kHz
  38. Frame rate                               : 93.750 FPS (512 SPF)
  39. Bit depth                                : 24 bits
  40. Compression mode                         : Lossy
  41. Stream size                              : 795 MiB (14%)
  42. Language                                 : German
  43. Default                                  : Yes
  44. Forced                                   : No

  45. Text
  46. ID                                       : 3
  47. Format                                   : UTF-8
  48. Codec ID                                 : S_TEXT/UTF8
  49. Codec ID/Info                            : UTF-8 Plain Text
  50. Language                                 : English
  51. Default                                  : Yes
  52. Forced                                   : No

  53. Menu
  54. 00:00:00.000                             : en:00:00:00.000
  55. 00:06:00.000                             : en:00:06:00.000
  56. 00:12:00.000                             : en:00:12:00.000
  57. 00:18:00.000                             : en:00:18:00.000
  58. 00:24:00.000                             : en:00:24:00.000
  59. 00:30:00.000                             : en:00:30:00.000
  60. 00:36:00.000                             : en:00:36:00.000
  61. 00:42:00.000                             : en:00:42:00.000
  62. 00:48:00.000                             : en:00:48:00.000
  63. 00:54:00.000                             : en:00:54:00.000
  64. 01:00:00.000                             : en:01:00:00.000
  65. 01:06:00.000                             : en:01:06:00.000
复制代码

没缘由 No.Reason.2010.1080p.BluRay.x264-LiViDiTY 5.46GB-2.png 没缘由 No.Reason.2010.1080p.BluRay.x264-LiViDiTY 5.46GB-3.png 没缘由 No.Reason.2010.1080p.BluRay.x264-LiViDiTY 5.46GB-4.png






回复

使用道具 举报

懒得打字嘛,点击右侧快捷回复 【右侧内容,后台自定义】
您需要登录后才可以回帖 登录 | 立即加入

本版积分规则

Archiver|小黑屋| 蓝光电影网 |网站地图

Copyright © 2021 Comsenz Inc. Powered by 蓝光电影网

蓝光电影网

本站内容由用户自主分享和转载自互联网,转载目的在于传递更多信息,并不代表本网赞同其观点和对其真实性负责。

如有侵权、违反国家法律政策行为,请联系我们,我们会第一时间及时清除和处理!

举报反馈邮箱:[email protected]

快速回复 返回顶部 返回列表