找回密码

蓝光电影网

查看: 313|回复: 1

[剧情] 美狄亚 Medea.1969.ITALIAN.1080p.BluRay.x264-EA 15.18GB

[复制链接]
蓝光币
515
发表于 2020-4-25 12:18:08 | 显示全部楼层 |阅读模式
美狄亚 Medea.1969.ITALIAN.1080p.BluRay.x264-EA 15.18GB-1.png

译  名 美狄亚
片  名 Medea
年  代 1969
产  地 意大利 / 法国 / 西德
类  别 剧情 / 奇异
语  言 意大利语
上映日期 1969-12-28(米兰首映)
IMDb评分  7.1/10 from 4065 users
IMDb链接  https://www.imdb.com/title/tt0066065
豆瓣评分 7.8/10 from 1297 users
豆瓣链接 https://movie.douban.com/subject/1299115/
片  长 110分钟
导  演 皮埃尔·保罗·帕索里尼 Pier Paolo Pasolini
编  剧 皮埃尔·保罗·帕索里尼 Pier Paolo Pasolini / 欧里庇得斯 Euripides
主  演 玛丽亚·卡拉斯 Maria Callas
       马西莫·吉洛蒂 Massimo Girotti
       洛朗·特兹弗 Laurent Terzieff
       Giuseppe Gentile
       玛格瑞斯·克莱蒙 Margareth Clémenti
       Paul Jabara
       Gerard Weiss
       Sergio Tramonti
       Luigi Barbini
       Gian Paolo Durgar
       Luigi Masironi
       Michelangelo Masironi
       Gianni Brandizi
       Franco Jacobbi
       Annamaria Chio
       皮埃拉·迪格利·埃斯波斯蒂 Piera Degli Esposti
       米莱拉·班斐里 Mirella Pamphili


标  签 意大利 | 帕索里尼 | 美狄亚 | 意大利电影 | 1969 | 皮埃尔·保罗·帕索里尼 | 1960s | PierPaoloPasolini

简  介  

  伊阿宋是国王埃宋的儿子,埃宋的弟弟珀利阿斯夺取了王位,伊阿宋则被半人半马的喀戎抚养成人。长大后的伊阿宋回到王国,向叔叔要回王位。而叔叔要求他完成一个使命——夺取金羊毛,只要伊阿宋能做到,叔叔就把王位让出来。伊阿宋率领着希腊众豪杰一路远去,来到了金羊毛地点地科尔喀斯。美狄亚(玛丽亚?卡拉斯 Maria Callas 饰)是科尔喀斯城邦国王的女儿,她爱上了伊阿宋,因而窃取金羊毛献给了伊阿宋。她变节父亲、杀死弟弟,不惜舍弃一切,也要跟伊阿宋远走高飞,到悠远的国家一同生活。
  但是十年后,伊阿宋不再爱美狄亚,他为了和别国公主成婚而抛弃美狄亚和他们的两个儿子。义愤填膺、欣喜若狂的美狄亚决议向伊阿宋复仇,她用巫术杀死了国王父女,还把自己两个儿子亲手杀死……
  1. Video
  2. ID                                       : 1
  3. Format                                   : AVC
  4. Format/Info                              : Advanced Video Codec
  5. Format profile                           : [email protected]
  6. Format settings                          : CABAC / 4 Ref Frames
  7. Format settings, CABAC                   : Yes
  8. Format settings, Reference frames        : 4 frames
  9. Codec ID                                 : V_MPEG4/ISO/AVC
  10. Duration                                 : 1 h 51 min
  11. Bit rate                                 : 19.3 Mb/s
  12. Width                                    : 1 920 pixels
  13. Height                                   : 1 040 pixels
  14. Display aspect ratio                     : 1.85:1
  15. Frame rate mode                          : Constant
  16. Frame rate                               : 23.976 (24000/1001/189150) FPS
  17. Color space                              : YUV
  18. Chroma subsampling                       : 4:2:0
  19. Bit depth                                : 8 bits
  20. Scan type                                : Progressive
  21. Bits/(Pixel*Frame)                       : 0.403
  22. Stream size                              : 14.9 GiB (98%)
  23. Title                                    : -EA
  24. Writing library                          : x264 core 144 r0+2574 9abcd72 t_mod_Custom [[email protected] X86_64]
  25. Encoding settings                        : cabac=1 / ref=4 / deblock=1:-3:-3 / analyse=0x3:0x113 / me=umh / subme=10 / psy=1 / fade_compensate=0.00 / psy_rd=1.10:0.00 / mixed_ref=1 / me_range=32 / chroma_me=1 / trellis=2 / 8x8dct=1 / cqm=0 / deadzone=21,11 / fast_pskip=0 / chroma_qp_offset=-2 / threads=12 / lookahead_threads=3 / sliced_threads=0 / nr=0 / decimate=0 / interlaced=0 / bluray_compat=0 / constrained_intra=0 / fgo=0 / bframes=10 / b_pyramid=2 / b_adapt=2 / b_bias=0 / direct=3 / weightb=1 / open_gop=0 / weightp=2 / keyint=240 / keyint_min=23 / scenecut=40 / intra_refresh=0 / rc_lookahead=50 / rc=crf / mbtree=0 / crf=19.4000 / qcomp=0.75 / qpmin=0:0:0 / qpmax=69:69:69 / qpstep=4 / vbv_maxrate=62500 / vbv_bufsize=78125 / crf_max=0.0 / nal_hrd=none / filler=0 / ip_ratio=1.20 / pb_ratio=1.10 / aq=1:0.60 / aq-sensitivity=10.00 / aq-factor=1.00:1.00:1.00 / aq2=1:0.50 / aq2-sensitivity=15.00 / aq2-factor=1.00:1.00:1.00 / aq3=0
  26. Language                                 : Italian
  27. Default                                  : Yes
  28. Forced                                   : No
  29. Color range                              : Limited
  30. Color primaries                          : BT.709
  31. Transfer characteristics                 : BT.709
  32. Matrix coefficients                      : BT.709

  33. Audio
  34. ID                                       : 2
  35. Format                                   : FLAC
  36. Format/Info                              : Free Lossless Audio Codec
  37. Codec ID                                 : A_FLAC
  38. Duration                                 : 1 h 51 min
  39. Bit rate mode                            : Variable
  40. Bit rate                                 : 290 kb/s
  41. Channel(s)                               : 2 channels
  42. Channel layout                           : L R
  43. Sampling rate                            : 48.0 kHz
  44. Frame rate                               : 11.719 FPS (4096 SPF)
  45. Bit depth                                : 16 bits
  46. Compression mode                         : Lossless
  47. Stream size                              : 230 MiB (1%)
  48. Title                                    : Callas-voiced soundtrack
  49. Writing library                          : libFLAC 1.2.1 (UTC 2007-09-17)
  50. Language                                 : Italian
  51. Default                                  : Yes
  52. Forced                                   : No

  53. Text #1
  54. ID                                       : 3
  55. Format                                   : UTF-8
  56. Codec ID                                 : S_TEXT/UTF8
  57. Codec ID/Info                            : UTF-8 Plain Text
  58. Duration                                 : 1 h 47 min
  59. Bit rate                                 : 16 b/s
  60. Count of elements                        : 351
  61. Stream size                              : 12.9 KiB (0%)
  62. Title                                    : English
  63. Language                                 : English
  64. Default                                  : Yes
  65. Forced                                   : Yes

  66. Text #2
  67. ID                                       : 4
  68. Format                                   : PGS
  69. Muxing mode                              : zlib
  70. Codec ID                                 : S_HDMV/PGS
  71. Codec ID/Info                            : Picture based subtitle format used on BDs/HD-DVDs
  72. Duration                                 : 1 h 48 min
  73. Bit rate                                 : 3 093 b/s
  74. Count of elements                        : 704
  75. Stream size                              : 2.40 MiB (0%)
  76. Title                                    : sup
  77. Language                                 : English
  78. Default                                  : No
  79. Forced                                   : No

  80. Menu
  81. 00:00:00.000                             : en:00:00:00.000
  82. 00:08:58.538                             : en:00:08:58.538
  83. 00:24:16.455                             : en:00:24:16.455
  84. 00:36:55.213                             : en:00:36:55.213
  85. 00:49:20.958                             : en:00:49:20.958
  86. 00:55:10.307                             : en:00:55:10.307
  87. 01:03:40.817                             : en:01:03:40.817
  88. 01:10:58.254                             : en:01:10:58.254
  89. 01:17:55.296                             : en:01:17:55.296
  90. 01:23:46.021                             : en:01:23:46.021
  91. 01:30:58.453                             : en:01:30:58.453
  92. 01:41:26.706                             : en:01:41:26.706
复制代码

美狄亚 Medea.1969.ITALIAN.1080p.BluRay.x264-EA 15.18GB-2.png 美狄亚 Medea.1969.ITALIAN.1080p.BluRay.x264-EA 15.18GB-3.png 美狄亚 Medea.1969.ITALIAN.1080p.BluRay.x264-EA 15.18GB-4.png






回复

使用道具 举报

懒得打字嘛,点击右侧快捷回复 【右侧内容,后台自定义】
您需要登录后才可以回帖 登录 | 立即加入

本版积分规则

Archiver|小黑屋| 蓝光电影网 |网站地图

Copyright © 2021 Comsenz Inc. Powered by 蓝光电影网

蓝光电影网

本站内容由用户自主分享和转载自互联网,转载目的在于传递更多信息,并不代表本网赞同其观点和对其真实性负责。

如有侵权、违反国家法律政策行为,请联系我们,我们会第一时间及时清除和处理!

举报反馈邮箱:[email protected]

快速回复 返回顶部 返回列表