找回密码

蓝光电影网

查看: 360|回复: 2

[动画] 乐高星球大战:学徒危机 Lego.Star.Wars.The.Padawan.Menace.2011.1080p.BluRay.x264-HD4U 1.09GB

[复制链接]
蓝光币
511
发表于 2020-4-25 12:18:51 | 显示全部楼层 |阅读模式
乐高星球大战:学徒危机 Lego.Star.Wars.The.Padawan.Menace.2011.1080p.BluRay.x264-HD4U 1.09GB-1.png

译  名 乐高星球大战:学徒危机
片  名 Lego Star Wars: The Padawan Menace
年  代 2011
产  地 美国
类  别 动画 / 家庭 / 奇异
语  言 英语
上映日期 2011-07-22
IMDb评分  7.2/10 from 1460 users
IMDb链接  https://www.imdb.com/title/tt2005268
豆瓣评分 7.6/10 from 1186 users
豆瓣链接 https://movie.douban.com/subject/6965624/
片  长 22分钟
导  演 David Scott
编  剧 Michael Price
主  演 安东尼·丹尼尔斯 Anthony Daniels
       Nika Futterman
       菲尔·拉马 Phil LaMarr


标  签 动画 | 美国 | 科幻 | 短片 | 动画短片 | 星球大战 | 乐高 | 2011

简  介  

  杰迪学院的一次例行田野考查演酿成了一场喧闹的卡通冒险,尽在《乐高星球大战:帕达瓦的威胁》。尤达大师担任导游,C-3PO和R2-D2率领一群孩子参观参议院议事厅。一个名叫伊恩义孩子从孤儿院逃出,偷偷加入了他们的队伍。这时,参议院大楼里的奥秘作战计划被盗,有泄露给帕尔帕廷的危险。参观进程中,伊恩制造麻烦,致使C-3PO、R2-D2和其他的孩子飞入太空。邪恶的赛斯已经捋臂张拳,庇护年轻人的担子落在了尤达大师和机械人的身上。
  1. Video
  2. ID                                       : 1
  3. Format                                   : AVC
  4. Format/Info                              : Advanced Video Codec
  5. Format profile                           : [email protected]
  6. Format settings                          : CABAC / 4 Ref Frames
  7. Format settings, CABAC                   : Yes
  8. Format settings, Reference frames        : 4 frames
  9. Muxing mode                              : Header stripping
  10. Codec ID                                 : V_MPEG4/ISO/AVC
  11. Duration                                 : 22 min 4 s
  12. Bit rate                                 : 5 570 kb/s
  13. Width                                    : 1 920 pixels
  14. Height                                   : 1 080 pixels
  15. Display aspect ratio                     : 16:9
  16. Frame rate mode                          : Constant
  17. Frame rate                               : 23.976 FPS
  18. Color space                              : YUV
  19. Chroma subsampling                       : 4:2:0
  20. Bit depth                                : 8 bits
  21. Scan type                                : Progressive
  22. Bits/(Pixel*Frame)                       : 0.112
  23. Stream size                              : 857 MiB (77%)
  24. Writing library                          : x264 core 120 r2120 0c7dab9
  25. Encoding settings                        : cabac=1 / ref=4 / deblock=1:0:0 / analyse=0x3:0x133 / me=umh / subme=7 / psy=1 / psy_rd=1.00:0.00 / mixed_ref=1 / me_range=16 / chroma_me=1 / trellis=1 / 8x8dct=1 / cqm=0 / deadzone=21,11 / fast_pskip=0 / chroma_qp_offset=-2 / threads=18 / sliced_threads=0 / nr=0 / decimate=1 / interlaced=0 / bluray_compat=0 / constrained_intra=0 / bframes=3 / b_pyramid=2 / b_adapt=1 / b_bias=0 / direct=1 / weightb=1 / open_gop=0 / weightp=2 / keyint=250 / keyint_min=23 / scenecut=40 / intra_refresh=0 / rc_lookahead=40 / rc=2pass / mbtree=1 / bitrate=5570 / ratetol=1.0 / qcomp=0.60 / qpmin=0 / qpmax=69 / qpstep=4 / cplxblur=20.0 / qblur=0.5 / ip_ratio=1.40 / aq=1:1.00
  26. Language                                 : English
  27. Default                                  : Yes
  28. Forced                                   : No

  29. Audio
  30. ID                                       : 2
  31. Format                                   : DTS
  32. Format/Info                              : Digital Theater Systems
  33. Muxing mode                              : Header stripping
  34. Codec ID                                 : A_DTS
  35. Duration                                 : 22 min 4 s
  36. Bit rate mode                            : Constant
  37. Bit rate                                 : 1 509 kb/s
  38. Channel(s)                               : 6 channels
  39. Channel layout                           : C L R Ls Rs LFE
  40. Sampling rate                            : 48.0 kHz
  41. Frame rate                               : 93.750 FPS (512 SPF)
  42. Bit depth                                : 24 bits
  43. Compression mode                         : Lossy
  44. Stream size                              : 238 MiB (21%)
  45. Language                                 : English
  46. Default                                  : Yes
  47. Forced                                   : No

  48. Text #1
  49. ID                                       : 3
  50. Format                                   : UTF-8
  51. Codec ID                                 : S_TEXT/UTF8
  52. Codec ID/Info                            : UTF-8 Plain Text
  53. Language                                 : English
  54. Default                                  : Yes
  55. Forced                                   : No

  56. Text #2
  57. ID                                       : 4
  58. Format                                   : UTF-8
  59. Codec ID                                 : S_TEXT/UTF8
  60. Codec ID/Info                            : UTF-8 Plain Text
  61. Language                                 : English
  62. Default                                  : No
  63. Forced                                   : No
复制代码

乐高星球大战:学徒危机 Lego.Star.Wars.The.Padawan.Menace.2011.1080p.BluRay.x264-HD4U 1.09GB-2.png 乐高星球大战:学徒危机 Lego.Star.Wars.The.Padawan.Menace.2011.1080p.BluRay.x264-HD4U 1.09GB-3.png 乐高星球大战:学徒危机 Lego.Star.Wars.The.Padawan.Menace.2011.1080p.BluRay.x264-HD4U 1.09GB-4.png






回复

使用道具 举报

懒得打字嘛,点击右侧快捷回复 【右侧内容,后台自定义】
您需要登录后才可以回帖 登录 | 立即加入

本版积分规则

Archiver|小黑屋| 蓝光电影网 |网站地图

Copyright © 2021 Comsenz Inc. Powered by 蓝光电影网

蓝光电影网

本站内容由用户自主分享和转载自互联网,转载目的在于传递更多信息,并不代表本网赞同其观点和对其真实性负责。

如有侵权、违反国家法律政策行为,请联系我们,我们会第一时间及时清除和处理!

举报反馈邮箱:[email protected]

快速回复 返回顶部 返回列表