找回密码

蓝光电影网

查看: 498|回复: 1

[剧情] 海宫艳盗 Against.All.Flags.1952.1080p.BluRay.x264-LEVERAGE 7.94GB

[复制链接]
蓝光币
515
发表于 2020-4-25 12:42:35 | 显示全部楼层 |阅读模式
海宫艳盗 Against.All.Flags.1952.1080p.BluRay.x264-LEVERAGE 7.94GB-1.png

译  名 海宫艳盗
片  名 Against All Flags
年  代 1952
产  地 美国
类  别 剧情 / 行动 / 冒险
语  言 英语
上映日期 1953-02-06
IMDb评分  6.6/10 from 2198 users
IMDb链接  https://www.imdb.com/title/tt0044333
豆瓣评分 0/10 from 0 users
豆瓣链接 https://movie.douban.com/subject/4144319/
片  长 83 分钟
导  演 George Sherman
编  剧 ?neas MacKenzie / 约瑟夫·霍夫曼 Joseph Hoffman
主  演 Errol Flynn
       Maureen O'Hara
       Anthony Quinn


标  签 海盗 | 美国 | 行动 | 美国电影 | 埃罗尔.弗林 | 冒险 | Errol_Flynn | 1950s

简  介  

  本片描写在公元1700年的印度洋,海盗横行,他们在马达加斯加岛设有要塞,追缉的官军舰艇一进入其海域即被穿插火网之炮火击沉。霍克中尉伪装变节投靠海盗,经海盗团体船主会议,需证实其被解雇并打败好勇斗狠的海盗以表示勇气才得以加入。在获得艳盗——史提芬船主(莫林.奥哈拉饰)的帮助下经过考验,并乘海盗船掠夺印度皇家船,掳走古月公主。最初终究获得了艳盗的芳心,完全崩溃了海盗基地。本片情节丰富盘曲,颇能吸引观众继续旁观下去,排场复杂可是颇能令人沉迷。
  1. Video
  2. ID                                       : 1
  3. Format                                   : AVC
  4. Format/Info                              : Advanced Video Codec
  5. Format profile                           : [email protected]
  6. Format settings                          : CABAC / 4 Ref Frames
  7. Format settings, CABAC                   : Yes
  8. Format settings, Reference frames        : 4 frames
  9. Muxing mode                              : Header stripping
  10. Codec ID                                 : V_MPEG4/ISO/AVC
  11. Duration                                 : 1 h 23 min
  12. Bit rate                                 : 12.1 Mb/s
  13. Width                                    : 1 472 pixels
  14. Height                                   : 1 080 pixels
  15. Display aspect ratio                     : 4:3
  16. Frame rate mode                          : Constant
  17. Frame rate                               : 23.976 (24000/1001/189150) FPS
  18. Color space                              : YUV
  19. Chroma subsampling                       : 4:2:0
  20. Bit depth                                : 8 bits
  21. Scan type                                : Progressive
  22. Bits/(Pixel*Frame)                       : 0.317
  23. Stream size                              : 6.90 GiB (87%)
  24. Writing library                          : x264 core 116 r2074 2641b9e
  25. Encoding settings                        : cabac=1 / ref=4 / deblock=1:0:0 / analyse=0x3:0x133 / me=umh / subme=7 / psy=1 / psy_rd=1.00:0.00 / mixed_ref=1 / me_range=16 / chroma_me=1 / trellis=1 / 8x8dct=1 / cqm=0 / deadzone=21,11 / fast_pskip=0 / chroma_qp_offset=-2 / threads=12 / sliced_threads=0 / nr=0 / decimate=1 / interlaced=0 / bluray_compat=0 / constrained_intra=0 / bframes=3 / b_pyramid=2 / b_adapt=1 / b_bias=0 / direct=1 / weightb=1 / open_gop=0 / weightp=2 / keyint=250 / keyint_min=23 / scenecut=40 / intra_refresh=0 / rc_lookahead=40 / rc=2pass / mbtree=1 / bitrate=12100 / ratetol=1.0 / qcomp=0.60 / qpmin=0 / qpmax=69 / qpstep=4 / cplxblur=20.0 / qblur=0.5 / ip_ratio=1.40 / aq=1:1.00
  26. Language                                 : English
  27. Default                                  : Yes
  28. Forced                                   : No

  29. Audio
  30. ID                                       : 2
  31. Format                                   : DTS
  32. Format/Info                              : Digital Theater Systems
  33. Muxing mode                              : Header stripping
  34. Codec ID                                 : A_DTS
  35. Duration                                 : 1 h 23 min
  36. Bit rate mode                            : Constant
  37. Bit rate                                 : 1 509 kb/s
  38. Channel(s)                               : 2 channels
  39. Channel layout                           : L R
  40. Sampling rate                            : 48.0 kHz
  41. Frame rate                               : 93.750 FPS (512 SPF)
  42. Bit depth                                : 24 bits
  43. Compression mode                         : Lossy
  44. Stream size                              : 902 MiB (11%)
  45. Language                                 : English
  46. Default                                  : Yes
  47. Forced                                   : No
复制代码

海宫艳盗 Against.All.Flags.1952.1080p.BluRay.x264-LEVERAGE 7.94GB-2.png 海宫艳盗 Against.All.Flags.1952.1080p.BluRay.x264-LEVERAGE 7.94GB-3.png 海宫艳盗 Against.All.Flags.1952.1080p.BluRay.x264-LEVERAGE 7.94GB-4.png






回复

使用道具 举报

懒得打字嘛,点击右侧快捷回复 【右侧内容,后台自定义】
您需要登录后才可以回帖 登录 | 立即加入

本版积分规则

Archiver|小黑屋| 蓝光电影网 |网站地图

Copyright © 2021 Comsenz Inc. Powered by 蓝光电影网

蓝光电影网

本站内容由用户自主分享和转载自互联网,转载目的在于传递更多信息,并不代表本网赞同其观点和对其真实性负责。

如有侵权、违反国家法律政策行为,请联系我们,我们会第一时间及时清除和处理!

举报反馈邮箱:[email protected]

快速回复 返回顶部 返回列表