找回密码

蓝光电影网

查看: 340|回复: 2

[喜剧] 午夜之后狂恋 After.Midnight.2004.1080p.BluRay.x264-MELiTE 6.56GB

[复制链接]
蓝光币
515
发表于 2020-4-25 12:43:18 | 显示全部楼层 |阅读模式
半夜以后狂恋 After.Midnight.2004.1080p.BluRay.x264-MELiTE 6.56GB-1.png

译  名 半夜以后狂恋 / After Midnight / Dopo mezzanotte
片  名 Dopo mezzanotte
年  代 2004
产  地 意大利
类  别 笑剧 / 恋爱
语  言 意大利语
上映日期 2004-04-23
IMDb评分  6.9/10 from 1473 users
IMDb链接  https://www.imdb.com/title/tt0402141
豆瓣评分 7.9/10 from 1142 users
豆瓣链接 https://movie.douban.com/subject/1395547/
片  长 92 分钟
导  演 Davide Ferrario
主  演 Francesca Inaudi
       Giorgio Pasotti
       Fabio Troiano


标  签 意大利 | 恋爱 | 意大利电影 | 文艺 | 青春 | 2004 | 半夜以后狂恋 | 都灵

简  介  

  都灵城里,几个年轻人的生活相互交织但一时没有了解的事理。安托内利尖塔上,国家电影博物馆的治理员马提诺(Giorgio Pasotti 饰)沉醉在私人的电影天下中,他似乎因在影象中浸淫太久而显得沉默木讷,为了见到心仪的快餐伙计阿曼达(Francesca Inaudi 饰),马提诺每夜采办自己毫无爱好的汉堡。阿曼达的男友——绰号“天使”(Fabio Troiano 饰)的偷车贼没有更多的精神陪伴女友,这使阿曼达对死板生活的忍受终究到达极限,用热水烫伤了司理,慌不择路的阿曼达躲进电影博物馆,由此进入到马提诺沉默但又奇妙的天下:恍如基顿电影中复制出的房间、配角是她的超8电影、梦乡一般的光影幻化……阿曼达被深深感动但还是返回昔日生活,马提诺兴起勇气找到天使,两人决议将挑选权交给阿曼达……
  本片获2004年柏林电影节导演论坛奖、堂吉诃德奖等多项嘉奖。
  1. Video
  2. ID                                       : 1
  3. Format                                   : AVC
  4. Format/Info                              : Advanced Video Codec
  5. Format profile                           : [email protected]
  6. Format settings                          : CABAC / 4 Ref Frames
  7. Format settings, CABAC                   : Yes
  8. Format settings, Reference frames        : 4 frames
  9. Muxing mode                              : Header stripping
  10. Codec ID                                 : V_MPEG4/ISO/AVC
  11. Duration                                 : 1 h 31 min
  12. Bit rate                                 : 8 734 kb/s
  13. Width                                    : 1 872 pixels
  14. Height                                   : 1 080 pixels
  15. Display aspect ratio                     : 1.733
  16. Frame rate mode                          : Constant
  17. Frame rate                               : 23.976 FPS
  18. Color space                              : YUV
  19. Chroma subsampling                       : 4:2:0
  20. Bit depth                                : 8 bits
  21. Scan type                                : Progressive
  22. Bits/(Pixel*Frame)                       : 0.180
  23. Stream size                              : 5.46 GiB (83%)
  24. Writing library                          : x264 core 116 r2074 2641b9e
  25. Encoding settings                        : cabac=1 / ref=4 / deblock=1:0:0 / analyse=0x3:0x113 / me=umh / subme=7 / psy=1 / psy_rd=1.00:0.00 / mixed_ref=1 / me_range=16 / chroma_me=1 / trellis=1 / 8x8dct=1 / cqm=0 / deadzone=21,11 / fast_pskip=0 / chroma_qp_offset=-2 / threads=12 / sliced_threads=0 / nr=0 / decimate=1 / interlaced=0 / bluray_compat=0 / constrained_intra=0 / bframes=3 / b_pyramid=2 / b_adapt=1 / b_bias=0 / direct=1 / weightb=1 / open_gop=0 / weightp=2 / keyint=250 / keyint_min=23 / scenecut=40 / intra_refresh=0 / rc_lookahead=40 / rc=2pass / mbtree=1 / bitrate=8734 / ratetol=1.0 / qcomp=0.60 / qpmin=0 / qpmax=69 / qpstep=4 / cplxblur=20.0 / qblur=0.5 / ip_ratio=1.40 / aq=1:1.00
  26. Language                                 : English
  27. Default                                  : Yes
  28. Forced                                   : No

  29. Audio
  30. ID                                       : 2
  31. Format                                   : DTS
  32. Format/Info                              : Digital Theater Systems
  33. Muxing mode                              : Header stripping
  34. Codec ID                                 : A_DTS
  35. Duration                                 : 1 h 31 min
  36. Bit rate mode                            : Constant
  37. Bit rate                                 : 1 509 kb/s
  38. Channel(s)                               : 6 channels
  39. Channel layout                           : C L R Ls Rs LFE
  40. Sampling rate                            : 48.0 kHz
  41. Frame rate                               : 93.750 FPS (512 SPF)
  42. Bit depth                                : 16 bits
  43. Compression mode                         : Lossy
  44. Stream size                              : 990 MiB (15%)
  45. Language                                 : Italian
  46. Default                                  : Yes
  47. Forced                                   : No

  48. Text
  49. ID                                       : 3
  50. Format                                   : UTF-8
  51. Codec ID                                 : S_TEXT/UTF8
  52. Codec ID/Info                            : UTF-8 Plain Text
  53. Language                                 : English
  54. Default                                  : Yes
  55. Forced                                   : No
复制代码

半夜以后狂恋 After.Midnight.2004.1080p.BluRay.x264-MELiTE 6.56GB-2.png 半夜以后狂恋 After.Midnight.2004.1080p.BluRay.x264-MELiTE 6.56GB-3.png 半夜以后狂恋 After.Midnight.2004.1080p.BluRay.x264-MELiTE 6.56GB-4.png






回复

使用道具 举报

蓝光币
23
发表于 2020-4-25 22:43:07 | 显示全部楼层

这东西我收了!谢谢楼主!蓝光电影网真好!
回复 支持 反对

使用道具 举报

懒得打字嘛,点击右侧快捷回复 【右侧内容,后台自定义】
您需要登录后才可以回帖 登录 | 立即加入

本版积分规则

Archiver|小黑屋| 蓝光电影网 |网站地图

Copyright © 2021 Comsenz Inc. Powered by 蓝光电影网

蓝光电影网

本站内容由用户自主分享和转载自互联网,转载目的在于传递更多信息,并不代表本网赞同其观点和对其真实性负责。

如有侵权、违反国家法律政策行为,请联系我们,我们会第一时间及时清除和处理!

举报反馈邮箱:[email protected]

快速回复 返回顶部 返回列表