找回密码

蓝光电影网

查看: 341|回复: 2

[惊悚] 格蕾特和韩塞尔 Gretel.and.Hansel.2020.720p.BluRay.x264-WUTANG 4.88GB

[复制链接]
蓝光币
515
发表于 2020-4-25 12:47:54 | 显示全部楼层 |阅读模式
格蕾特和韩塞尔 Gretel.and.Hansel.2020.720p.BluRay.x264-WUTANG 4.88GB-1.png

译  名 格蕾特和韩塞尔 / Gretel and Hansel / 战栗糖果屋(台) / 糖果屋 / 韩赛尔与格蕾特
片  名 Gretel & Hansel
年  代 2020
产  地 加拿大 / 爱尔兰 / 美国 / 南非
类  别 惊悚 / 可骇 / 奇异
语  言 英语
上映日期 2020-01-31(美国)
IMDb评分  5.3/10 from 8692 users
IMDb链接  https://www.imdb.com/title/tt9086228
豆瓣评分 5.2/10 from 587 users
豆瓣链接 https://movie.douban.com/subject/34807058/
片  长 87分钟
导  演 奥兹·珀金斯 Oz Perkins
编  剧 罗布·海斯 Rob Hayes
主  演 索菲娅·莉莉丝 Sophia Lillis
       艾丽丝·克里奇 Alice Krige
       杰西卡·德·古维 Jessica De Gouw
       查尔斯·巴巴洛拉 Charles Babalola
       塞缪尔·利基 Samuel Leakey
       伊安·肯尼 Ian Kenny
       阿卜杜勒·阿尔沙瑞夫 Abdul Alshareef
       曼纽尔·庞波 Manuel Pombo
       贝娅特丽克斯·帕金斯 Beatrix Perkins


标  签 可骇 | 奇异 | 惊悚 | 2020 | 美国 | 魔幻 | 黑色童话 | 超现实

简  介  

  描写葛丽特与汉赛尔被抛弃在黑森林中,试图找寻食品,却误入女巫预备丰厚佳肴的屋子。
  故事发生在很久很久之前,在一个悠远的村落,女孩葛丽特(索菲娅·莉莉丝 饰)带着弟弟韩赛尔进入一片阴暗密林,温饱交迫的两人原本希望可以在这里找到食品和工作,却遇上了使人恐惧的邪恶存在……
  1. Video
  2. ID                                       : 1
  3. Format                                   : AVC
  4. Format/Info                              : Advanced Video Codec
  5. Format profile                           : [email protected]
  6. Format settings                          : CABAC / 8 Ref Frames
  7. Format settings, CABAC                   : Yes
  8. Format settings, Reference frames        : 8 frames
  9. Codec ID                                 : V_MPEG4/ISO/AVC
  10. Duration                                 : 1 h 27 min
  11. Bit rate                                 : 7 335 kb/s
  12. Width                                    : 1 280 pixels
  13. Height                                   : 692 pixels
  14. Display aspect ratio                     : 1.85:1
  15. Frame rate mode                          : Constant
  16. Frame rate                               : 23.976 (24000/1001/189150) FPS
  17. Color space                              : YUV
  18. Chroma subsampling                       : 4:2:0
  19. Bit depth                                : 8 bits
  20. Scan type                                : Progressive
  21. Bits/(Pixel*Frame)                       : 0.345
  22. Stream size                              : 4.47 GiB (92%)
  23. Writing library                          : x264 core 160 r3000 33f9e14
  24. Encoding settings                        : cabac=1 / ref=8 / deblock=1:-3:-3 / analyse=0x3:0x133 / me=umh / subme=9 / psy=1 / psy_rd=1.00:0.00 / mixed_ref=1 / me_range=24 / chroma_me=1 / trellis=2 / 8x8dct=1 / cqm=0 / deadzone=21,11 / fast_pskip=0 / chroma_qp_offset=-2 / threads=22 / lookahead_threads=1 / sliced_threads=0 / nr=0 / decimate=1 / interlaced=0 / bluray_compat=0 / constrained_intra=0 / bframes=3 / b_pyramid=2 / b_adapt=2 / b_bias=0 / direct=3 / weightb=1 / open_gop=0 / weightp=2 / keyint=250 / keyint_min=23 / scenecut=40 / intra_refresh=0 / rc=crf / mbtree=0 / crf=14.8 / qcomp=0.60 / qpmin=0 / qpmax=69 / qpstep=4 / ip_ratio=1.40 / pb_ratio=1.30 / aq=3:0.80
  25. Default                                  : Yes
  26. Forced                                   : No
  27. Color range                              : Limited
  28. Matrix coefficients                      : BT.709

  29. Audio
  30. ID                                       : 2
  31. Format                                   : AC-3
  32. Format/Info                              : Audio Coding 3
  33. Commercial name                          : Dolby Digital
  34. Codec ID                                 : A_AC3
  35. Duration                                 : 1 h 27 min
  36. Bit rate mode                            : Constant
  37. Bit rate                                 : 640 kb/s
  38. Channel(s)                               : 6 channels
  39. Channel layout                           : L R C LFE Ls Rs
  40. Sampling rate                            : 48.0 kHz
  41. Frame rate                               : 31.250 FPS (1536 SPF)
  42. Bit depth                                : 16 bits
  43. Compression mode                         : Lossy
  44. Stream size                              : 400 MiB (8%)
  45. Title                                    : English
  46. Language                                 : English
  47. Service kind                             : Complete Main
  48. Default                                  : Yes
  49. Forced                                   : No

  50. Text #1
  51. ID                                       : 3
  52. Format                                   : PGS
  53. Muxing mode                              : zlib
  54. Codec ID                                 : S_HDMV/PGS
  55. Codec ID/Info                            : Picture based subtitle format used on BDs/HD-DVDs
  56. Duration                                 : 1 h 21 min
  57. Bit rate                                 : 26.3 kb/s
  58. Count of elements                        : 1464
  59. Stream size                              : 15.4 MiB (0%)
  60. Language                                 : English
  61. Default                                  : No
  62. Forced                                   : No

  63. Text #2
  64. ID                                       : 4
  65. Format                                   : PGS
  66. Muxing mode                              : zlib
  67. Codec ID                                 : S_HDMV/PGS
  68. Codec ID/Info                            : Picture based subtitle format used on BDs/HD-DVDs
  69. Duration                                 : 1 h 26 min
  70. Bit rate                                 : 22.0 kb/s
  71. Count of elements                        : 1496
  72. Stream size                              : 13.6 MiB (0%)
  73. Language                                 : Spanish
  74. Default                                  : No
  75. Forced                                   : No

  76. Menu
  77. 00:00:00.000                             : en:Chapter 01
  78. 00:09:17.140                             : en:Chapter 02
  79. 00:18:36.198                             : en:Chapter 03
  80. 00:28:10.063                             : en:Chapter 04
  81. 00:36:36.069                             : en:Chapter 05
  82. 00:44:25.454                             : en:Chapter 06
  83. 00:54:17.838                             : en:Chapter 07
  84. 01:04:07.469                             : en:Chapter 08
  85. 01:12:41.983                             : en:Chapter 09
  86. 01:22:15.013                             : en:Chapter 10
复制代码

格蕾特和韩塞尔 Gretel.and.Hansel.2020.720p.BluRay.x264-WUTANG 4.88GB-2.png






回复

使用道具 举报

懒得打字嘛,点击右侧快捷回复 【右侧内容,后台自定义】
您需要登录后才可以回帖 登录 | 立即加入

本版积分规则

Archiver|小黑屋| 蓝光电影网 |网站地图

Copyright © 2021 Comsenz Inc. Powered by 蓝光电影网

蓝光电影网

本站内容由用户自主分享和转载自互联网,转载目的在于传递更多信息,并不代表本网赞同其观点和对其真实性负责。

如有侵权、违反国家法律政策行为,请联系我们,我们会第一时间及时清除和处理!

举报反馈邮箱:[email protected]

快速回复 返回顶部 返回列表