找回密码

蓝光电影网

查看: 787|回复: 7

[惊悚] 阿肯色 Arkansas.2020.1080p.BluRay.x264-YOL0W 15.18GB

[复制链接]
蓝光币
515
发表于 2020-4-25 12:51:20 | 显示全部楼层 |阅读模式
阿肯色 Arkansas.2020.1080p.BluRay.x264-YOL0W 15.18GB-1.png

译  名 阿肯色 / ARK??NSAS
片  名 Arkansas
年  代 2020
产  地 美国
类  别 惊悚 / 犯罪
语  言 英语
上映日期 2020-05-01(美国)
IMDb链接  https://www.imdb.com/title/tt9139586
豆瓣评分 0/10 from 0 users
豆瓣链接 https://movie.douban.com/subject/30355043/
片  长 115分钟
导  演 克拉克·杜克 Clark Duke
编  剧 克拉克·杜克 Clark Duke
主  演 利亚姆·海姆斯沃斯 Liam Hemsworth
       文斯·沃恩 Vince Vaughn
       克拉克·杜克 Clark Duke
       雅各布·扎哈尔 Jacob Zachar
       约翰·马尔科维奇 John Malkovich
       迈克尔·肯尼斯·威廉姆斯 Michael Kenneth Williams
       薇薇卡·福克斯 Vivica A. Fox


标  签 犯罪 | 美国电影 | 约翰·马尔科维奇 | 文斯·沃恩 | 搞笑 | 惊悚 | 利亚姆·海姆斯沃斯

简  介  

  利亚姆·海姆斯沃斯、文斯·沃恩将主演克拉克·杜克导演童贞作[阿肯色]。本片报告迪克西黑手党中两名低级毒贩(海姆斯沃斯、杜克饰)本依照阿肯色州毒枭(沃恩饰)的号令生活,但一笔买卖出了可怕的过失,随之而来的是致命的结果。该片将于本周开拍。
  1. Video
  2. ID                                       : 1
  3. Format                                   : AVC
  4. Format/Info                              : Advanced Video Codec
  5. Format profile                           : [email protected]
  6. Format settings                          : CABAC / 5 Ref Frames
  7. Format settings, CABAC                   : Yes
  8. Format settings, Reference frames        : 5 frames
  9. Codec ID                                 : V_MPEG4/ISO/AVC
  10. Duration                                 : 1 h 56 min
  11. Bit rate                                 : 14.7 Mb/s
  12. Width                                    : 1 920 pixels
  13. Height                                   : 800 pixels
  14. Display aspect ratio                     : 2.40:1
  15. Frame rate mode                          : Constant
  16. Frame rate                               : 23.976 (24000/1001/189150) FPS
  17. Color space                              : YUV
  18. Chroma subsampling                       : 4:2:0
  19. Bit depth                                : 8 bits
  20. Scan type                                : Progressive
  21. Bits/(Pixel*Frame)                       : 0.398
  22. Stream size                              : 12.0 GiB (79%)
  23. Writing library                          : x264 core 160 r3000 33f9e14
  24. Encoding settings                        : cabac=1 / ref=5 / deblock=1:-3:-3 / analyse=0x3:0x133 / me=umh / subme=9 / psy=1 / psy_rd=1.00:0.00 / mixed_ref=1 / me_range=16 / chroma_me=1 / trellis=2 / 8x8dct=1 / cqm=0 / deadzone=21,11 / fast_pskip=0 / chroma_qp_offset=-2 / threads=16 / lookahead_threads=1 / sliced_threads=0 / nr=0 / decimate=0 / interlaced=0 / bluray_compat=0 / constrained_intra=0 / bframes=3 / b_pyramid=2 / b_adapt=2 / b_bias=0 / direct=3 / weightb=1 / open_gop=0 / weightp=2 / keyint=250 / keyint_min=23 / scenecut=40 / intra_refresh=0 / rc=crf / mbtree=0 / crf=16.7 / qcomp=0.60 / qpmin=0 / qpmax=69 / qpstep=4 / ip_ratio=1.40 / pb_ratio=1.30 / aq=3:0.80
  25. Language                                 : English
  26. Default                                  : Yes
  27. Forced                                   : No
  28. Color range                              : Limited
  29. Matrix coefficients                      : BT.709

  30. Audio #1
  31. ID                                       : 2
  32. Format                                   : DTS XLL
  33. Format/Info                              : Digital Theater Systems
  34. Commercial name                          : DTS-HD Master Audio
  35. Codec ID                                 : A_DTS
  36. Duration                                 : 1 h 56 min
  37. Bit rate mode                            : Variable
  38. Bit rate                                 : 3 778 kb/s
  39. Channel(s)                               : 6 channels
  40. Channel layout                           : C L R Ls Rs LFE
  41. Sampling rate                            : 48.0 kHz
  42. Frame rate                               : 93.750 FPS (512 SPF)
  43. Bit depth                                : 24 bits
  44. Compression mode                         : Lossless
  45. Stream size                              : 3.09 GiB (20%)
  46. Title                                    : English
  47. Language                                 : English
  48. Default                                  : Yes
  49. Forced                                   : No

  50. Audio #2
  51. ID                                       : 3
  52. Format                                   : AAC LC
  53. Format/Info                              : Advanced Audio Codec Low Complexity
  54. Codec ID                                 : A_AAC-2
  55. Duration                                 : 1 h 56 min
  56. Bit rate                                 : 103 kb/s
  57. Channel(s)                               : 2 channels
  58. Channel layout                           : L R
  59. Sampling rate                            : 48.0 kHz
  60. Frame rate                               : 46.875 FPS (1024 SPF)
  61. Compression mode                         : Lossy
  62. Delay relative to video                  : 9 ms
  63. Stream size                              : 86.2 MiB (1%)
  64. Title                                    : Commentary With Writer/Director Clark Duke
  65. Language                                 : English
  66. Default                                  : No
  67. Forced                                   : No

  68. Text #1
  69. ID                                       : 4
  70. Format                                   : PGS
  71. Muxing mode                              : zlib
  72. Codec ID                                 : S_HDMV/PGS
  73. Codec ID/Info                            : Picture based subtitle format used on BDs/HD-DVDs
  74. Duration                                 : 1 h 53 min
  75. Bit rate                                 : 43.6 kb/s
  76. Count of elements                        : 3482
  77. Stream size                              : 35.4 MiB (0%)
  78. Language                                 : English
  79. Default                                  : No
  80. Forced                                   : No

  81. Text #2
  82. ID                                       : 5
  83. Format                                   : PGS
  84. Muxing mode                              : zlib
  85. Codec ID                                 : S_HDMV/PGS
  86. Codec ID/Info                            : Picture based subtitle format used on BDs/HD-DVDs
  87. Duration                                 : 1 h 55 min
  88. Bit rate                                 : 35.4 kb/s
  89. Count of elements                        : 3164
  90. Stream size                              : 29.3 MiB (0%)
  91. Language                                 : Spanish
  92. Default                                  : No
  93. Forced                                   : No

  94. Menu
  95. 00:00:00.000                             : en:Chapter 01
  96. 00:05:13.438                             : en:Chapter 02
  97. 00:12:29.374                             : en:Chapter 03
  98. 00:20:52.418                             : en:Chapter 04
  99. 00:31:15.624                             : en:Chapter 05
  100. 00:38:00.445                             : en:Chapter 06
  101. 00:43:10.421                             : en:Chapter 07
  102. 00:51:50.232                             : en:Chapter 08
  103. 00:54:53.624                             : en:Chapter 09
  104. 01:01:04.411                             : en:Chapter 10
  105. 01:05:21.459                             : en:Chapter 11
  106. 01:16:48.604                             : en:Chapter 12
  107. 01:25:30.417                             : en:Chapter 13
  108. 01:32:33.548                             : en:Chapter 14
  109. 01:40:58.344                             : en:Chapter 15
  110. 01:46:18.080                             : en:Chapter 16
复制代码

阿肯色 Arkansas.2020.1080p.BluRay.x264-YOL0W 15.18GB-2.png






回复

使用道具 举报

蓝光币
1474
发表于 2020-4-25 14:58:49 | 显示全部楼层
太好啦&萬分感謝版主的無私發佈分享%
回复 支持 反对

使用道具 举报

蓝光币
468
发表于 2020-4-26 08:57:59 | 显示全部楼层
楼主发贴辛苦了,谢谢楼主分享!我觉得蓝光电影网是注册对了!
回复 支持 反对

使用道具 举报

懒得打字嘛,点击右侧快捷回复 【右侧内容,后台自定义】
您需要登录后才可以回帖 登录 | 立即加入

本版积分规则

Archiver|小黑屋| 蓝光电影网 |网站地图

Copyright © 2021 Comsenz Inc. Powered by 蓝光电影网

蓝光电影网

本站内容由用户自主分享和转载自互联网,转载目的在于传递更多信息,并不代表本网赞同其观点和对其真实性负责。

如有侵权、违反国家法律政策行为,请联系我们,我们会第一时间及时清除和处理!

举报反馈邮箱:[email protected]

快速回复 返回顶部 返回列表