找回密码

蓝光电影网

查看: 196|回复: 2

[剧情] 我们可以睡得很香 May.We.Sleep.Soundly.2015.720p.BluRay.x264-GHOULS 883.88MB

[复制链接]
蓝光币
519
发表于 2020-4-26 10:02:09 | 显示全部楼层 |阅读模式
我们可以睡得很香 May.We.Sleep.Soundly.2015.720p.BluRay.x264-GHOULS 883.88MB-1.png

译  名 我们可以睡得很香 / May We Sleep Soundly
片  名 Que nous nous assoupissions
年  代 2015
产  地 加拿大
类  别 剧情
语  言 法语
IMDb评分  4.6/10 from 18 users
IMDb链接  https://www.imdb.com/title/tt4930228
豆瓣评分 0/10 from 0 users
豆瓣链接 https://movie.douban.com/subject/26615647/
片  长 15分钟
导  演 德尼·科泰 Denis C?té
编  剧 德尼·科泰 Denis C?té

标  签 電影院 | 短片 | 加拿大 | asfun | P-BerlinE影评人周 | DenisC?té | 2016-05

简  介  

  Winter persists. Something happened. At the heart of the woods, on the slopes of mountains, in the streets and even inside homes, a strange silence took up residence. Will there remain a soul to witness the recent event?
  1. Video
  2. ID                                       : 1
  3. Format                                   : AVC
  4. Format/Info                              : Advanced Video Codec
  5. Format profile                           : [email protected]
  6. Format settings                          : CABAC / 9 Ref Frames
  7. Format settings, CABAC                   : Yes
  8. Format settings, Reference frames        : 9 frames
  9. Codec ID                                 : V_MPEG4/ISO/AVC
  10. Duration                                 : 14 min 10 s
  11. Bit rate                                 : 8 258 kb/s
  12. Width                                    : 1 280 pixels
  13. Height                                   : 720 pixels
  14. Display aspect ratio                     : 16:9
  15. Frame rate mode                          : Constant
  16. Frame rate                               : 24.000 FPS
  17. Color space                              : YUV
  18. Chroma subsampling                       : 4:2:0
  19. Bit depth                                : 8 bits
  20. Scan type                                : Progressive
  21. Bits/(Pixel*Frame)                       : 0.373
  22. Stream size                              : 837 MiB (95%)
  23. Writing library                          : x264 core 160 r3000 33f9e14
  24. Encoding settings                        : cabac=1 / ref=9 / deblock=1:-3:-3 / analyse=0x3:0x133 / me=umh / subme=10 / psy=1 / psy_rd=1.20:0.00 / mixed_ref=1 / me_range=24 / chroma_me=1 / trellis=2 / 8x8dct=1 / cqm=0 / deadzone=21,11 / fast_pskip=0 / chroma_qp_offset=-2 / threads=22 / lookahead_threads=3 / sliced_threads=0 / nr=0 / decimate=0 / interlaced=0 / bluray_compat=0 / constrained_intra=0 / bframes=8 / b_pyramid=2 / b_adapt=2 / b_bias=0 / direct=3 / weightb=1 / open_gop=0 / weightp=2 / keyint=250 / keyint_min=24 / scenecut=40 / intra_refresh=0 / rc=crf / mbtree=0 / crf=17.5 / qcomp=0.60 / qpmin=0 / qpmax=69 / qpstep=4 / ip_ratio=1.40 / pb_ratio=1.30 / aq=3:0.90
  25. Default                                  : Yes
  26. Forced                                   : No
  27. Color range                              : Limited
  28. Matrix coefficients                      : BT.709

  29. Audio
  30. ID                                       : 2
  31. Format                                   : FLAC
  32. Format/Info                              : Free Lossless Audio Codec
  33. Codec ID                                 : A_FLAC
  34. Duration                                 : 14 min 10 s
  35. Bit rate mode                            : Variable
  36. Bit rate                                 : 457 kb/s
  37. Channel(s)                               : 2 channels
  38. Channel layout                           : L R
  39. Sampling rate                            : 48.0 kHz
  40. Frame rate                               : 10.417 FPS (4608 SPF)
  41. Bit depth                                : 16 bits
  42. Compression mode                         : Lossless
  43. Stream size                              : 46.3 MiB (5%)
  44. Writing library                          : Lavf58.29.100
  45. Language                                 : English
  46. Default                                  : Yes
  47. Forced                                   : No
复制代码

我们可以睡得很香 May.We.Sleep.Soundly.2015.720p.BluRay.x264-GHOULS 883.88MB-2.png






回复

使用道具 举报

蓝光币
380
发表于 2020-4-28 15:00:21 | 显示全部楼层

这东西我收了!谢谢楼主!蓝光电影网真好!
回复 支持 反对

使用道具 举报

蓝光币
3738
发表于 2020-4-29 01:38:55 | 显示全部楼层
谢谢楼主分享
回复 支持 反对

使用道具 举报

懒得打字嘛,点击右侧快捷回复 【右侧内容,后台自定义】
您需要登录后才可以回帖 登录 | 立即加入

本版积分规则

Archiver|小黑屋| 蓝光电影网 |网站地图

Copyright © 2021 Comsenz Inc. Powered by 蓝光电影网

蓝光电影网

本站内容由用户自主分享和转载自互联网,转载目的在于传递更多信息,并不代表本网赞同其观点和对其真实性负责。

如有侵权、违反国家法律政策行为,请联系我们,我们会第一时间及时清除和处理!

举报反馈邮箱:[email protected]

快速回复 返回顶部 返回列表