找回密码

蓝光电影网

查看: 232|回复: 1

[剧情] 冰壶 Curling.2010.720p.BluRay.x264-GHOULS 6.06GB

[复制链接]
蓝光币
511
发表于 2020-4-26 10:04:34 | 显示全部楼层 |阅读模式
冰壶 Curling.2010.720p.BluRay.x264-GHOULS 6.06GB-1.png

译  名 冰壶
片  名 Curling
年  代 2010
产  地 加拿大
类  别 剧情
语  言 法语
上映日期 2010-08-09(洛迦诺电影节)
IMDb评分  6.4/10 from 753 users
IMDb链接  https://www.imdb.com/title/tt1699180
豆瓣评分 6.2/10 from 45 users
豆瓣链接 https://movie.douban.com/subject/5026587/
片  长 92分钟
导  演 德尼·科泰 Denis C?té
编  剧 德尼·科泰 Denis C?té
主  演 Emmanuel Bilodeau
       Philomène Bilodeau
       Sophie Desmarais


标  签 加拿大 | 加拿大电影 | 2010 | DenisC?té | ●Narrative | ○Feature | 2011 | 社会

简  介  

  Set in a village in Quebec, Denis C?té's Curling follows inveterate loner Jean-Fran?ois, a single father, and his isolated 12-year-old daughter Julyvonne. Between his unremarkable jobs, Jean-Fran?ois devotes an awkward energy to Julyvonne until some unexpected events jeopardize the fragile balance of their relationship.

获奖情况  

  第63届洛迦诺国际电影节(2010)
  金豹奖(提名) 德尼·科泰
  最好导演 德尼·科泰
  最好男演员 伊曼纽尔·比洛多
  1. Video
  2. ID                                       : 1
  3. Format                                   : AVC
  4. Format/Info                              : Advanced Video Codec
  5. Format profile                           : [email protected]
  6. Format settings                          : CABAC / 9 Ref Frames
  7. Format settings, CABAC                   : Yes
  8. Format settings, Reference frames        : 9 frames
  9. Codec ID                                 : V_MPEG4/ISO/AVC
  10. Duration                                 : 1 h 35 min
  11. Bit rate                                 : 8 426 kb/s
  12. Width                                    : 1 280 pixels
  13. Height                                   : 692 pixels
  14. Display aspect ratio                     : 1.85:1
  15. Frame rate mode                          : Constant
  16. Frame rate                               : 24.000 FPS
  17. Color space                              : YUV
  18. Chroma subsampling                       : 4:2:0
  19. Bit depth                                : 8 bits
  20. Scan type                                : Progressive
  21. Bits/(Pixel*Frame)                       : 0.396
  22. Stream size                              : 5.63 GiB (93%)
  23. Writing library                          : x264 core 160 r3000 33f9e14
  24. Encoding settings                        : cabac=1 / ref=9 / deblock=1:-3:-3 / analyse=0x3:0x133 / me=umh / subme=10 / psy=1 / psy_rd=1.20:0.00 / mixed_ref=1 / me_range=24 / chroma_me=1 / trellis=2 / 8x8dct=1 / cqm=0 / deadzone=21,11 / fast_pskip=0 / chroma_qp_offset=-2 / threads=22 / lookahead_threads=3 / sliced_threads=0 / nr=0 / decimate=0 / interlaced=0 / bluray_compat=0 / constrained_intra=0 / bframes=8 / b_pyramid=2 / b_adapt=2 / b_bias=0 / direct=3 / weightb=1 / open_gop=0 / weightp=2 / keyint=250 / keyint_min=24 / scenecut=40 / intra_refresh=0 / rc=crf / mbtree=0 / crf=17.0 / qcomp=0.60 / qpmin=0 / qpmax=69 / qpstep=4 / ip_ratio=1.40 / pb_ratio=1.30 / aq=3:0.90
  25. Default                                  : Yes
  26. Forced                                   : No
  27. Color range                              : Limited
  28. Matrix coefficients                      : BT.709

  29. Audio
  30. ID                                       : 2
  31. Format                                   : AC-3
  32. Format/Info                              : Audio Coding 3
  33. Commercial name                          : Dolby Digital
  34. Codec ID                                 : A_AC3
  35. Duration                                 : 1 h 35 min
  36. Bit rate mode                            : Constant
  37. Bit rate                                 : 640 kb/s
  38. Channel(s)                               : 6 channels
  39. Channel layout                           : L R C LFE Ls Rs
  40. Sampling rate                            : 48.0 kHz
  41. Frame rate                               : 31.250 FPS (1536 SPF)
  42. Bit depth                                : 16 bits
  43. Compression mode                         : Lossy
  44. Stream size                              : 438 MiB (7%)
  45. Language                                 : French
  46. Service kind                             : Complete Main
  47. Default                                  : Yes
  48. Forced                                   : No

  49. Text #1
  50. ID                                       : 3
  51. Format                                   : UTF-8
  52. Codec ID                                 : S_TEXT/UTF8
  53. Codec ID/Info                            : UTF-8 Plain Text
  54. Duration                                 : 1 h 27 min
  55. Bit rate                                 : 28 b/s
  56. Count of elements                        : 680
  57. Stream size                              : 18.0 KiB (0%)
  58. Title                                    : English (Forced)
  59. Language                                 : English
  60. Default                                  : Yes
  61. Forced                                   : Yes

  62. Text #2
  63. ID                                       : 4
  64. Format                                   : PGS
  65. Muxing mode                              : zlib
  66. Codec ID                                 : S_HDMV/PGS
  67. Codec ID/Info                            : Picture based subtitle format used on BDs/HD-DVDs
  68. Duration                                 : 1 h 27 min
  69. Bit rate                                 : 15.2 kb/s
  70. Count of elements                        : 1360
  71. Stream size                              : 9.47 MiB (0%)
  72. Language                                 : English
  73. Default                                  : No
  74. Forced                                   : No

  75. Menu
  76. 00:00:00.000                             : en:Chapter 01
  77. 00:07:57.792                             : en:Chapter 02
  78. 00:17:01.625                             : en:Chapter 03
  79. 00:24:58.000                             : en:Chapter 04
  80. 00:31:21.208                             : en:Chapter 05
  81. 00:39:13.125                             : en:Chapter 06
  82. 00:49:11.333                             : en:Chapter 07
  83. 01:00:22.542                             : en:Chapter 08
  84. 01:08:43.667                             : en:Chapter 09
  85. 01:14:15.375                             : en:Chapter 10
  86. 01:22:06.500                             : en:Chapter 11
  87. 01:30:46.583                             : en:Chapter 12
复制代码

冰壶 Curling.2010.720p.BluRay.x264-GHOULS 6.06GB-2.png






回复

使用道具 举报

蓝光币
3738
发表于 2020-4-28 01:19:58 | 显示全部楼层
谢谢楼主分享
回复 支持 反对

使用道具 举报

懒得打字嘛,点击右侧快捷回复 【右侧内容,后台自定义】
您需要登录后才可以回帖 登录 | 立即加入

本版积分规则

Archiver|小黑屋| 蓝光电影网 |网站地图

Copyright © 2021 Comsenz Inc. Powered by 蓝光电影网

蓝光电影网

本站内容由用户自主分享和转载自互联网,转载目的在于传递更多信息,并不代表本网赞同其观点和对其真实性负责。

如有侵权、违反国家法律政策行为,请联系我们,我们会第一时间及时清除和处理!

举报反馈邮箱:[email protected]

快速回复 返回顶部 返回列表