找回密码

蓝光电影网

查看: 198|回复: 3

[剧情] 范保德 Father.to.Son.2018.720p.BluRay.x264-BiPOLAR 3.12GB

[复制链接]
蓝光币
519
发表于 2020-4-26 10:28:12 | 显示全部楼层 |阅读模式
范保德 Father.to.Son.2018.720p.BluRay.x264-BiPOLAR 3.12GB-1.png

译  名 Father to Son
片  名 范保德
年  代 2018
产  地 中国台湾
类  别 剧情
语  言 汉语普通话 / 闽南语
上映日期 2018-01-29(鹿特丹电影节) / 2018-08-17(中国台湾)
IMDb评分  6.6/10 from 240 users
IMDb链接  https://www.imdb.com/title/tt7955554
豆瓣评分 6.8/10 from 956 users
豆瓣链接 https://movie.douban.com/subject/27621448/
片  长 115分钟
导  演 萧雅全 Ya-chuan Hsiao
编  剧 萧雅全 Ya-chuan Hsiao
主  演 黄仲昆 Chung-kun Huang
       庄凯勋 Cash Chuang
       傅孟柏 Meng-Po Fu
       王秀峰 Hsiu-feng Wang
       吕雪凤 Hsueh-Feng Lü
       温贞菱 Chuen Wen


标  签 台湾 | 2018 | 剧情 | 文艺片 | 人性 | 文艺 | 家庭 | 父子

简  介  

  一阵剧痛,让一向硬朗的范保德惊觉身材不敌光阴。一阵爆仗,旅社老板娘毓琴宣布投入里长选战,和范保德一家打对台。选情升温,病情烦心,很多往事随之自范保德的记忆深处叫醒。也也许因灭亡逼近,他决议和儿子前昔日本探问离家五十载的父亲消息。另一方面,毓琴找来香港的侄子帮手竞选,仅管人生地不熟,但这里和他似乎也有奥妙的关系。穿越今昔的多线叙事,《范保德》徐徐道出两代之间血浓于水,又奥妙难喻的亲感情应;更透过往事回忆与寻父之旅的见闻,间接显影出一幅格式宏大、国片少见的台湾冷战时代肖像。

获奖情况  

  第55届台北金马影展(2018)
  金马奖 最好新演员(提名) 傅孟柏
  金马奖 最好美术设想(提名) 王志成 / 黄文英
  金马奖 最好原创配乐(提名) 雷光夏 / 侯志坚
  金马奖 最好原创歌曲(提名) 雷光夏
  金马奖 最好音效(提名) 郭礼杞

  第20届台北电影节(2018)
  台北电影奖 最好剧情长片(提名) 萧雅全
  台北电影奖 最好导演奖 萧雅全
  台北电影奖 最好音乐奖
  台北电影奖 最好美术设想
  1. Video
  2. ID                                       : 1
  3. Format                                   : AVC
  4. Format/Info                              : Advanced Video Codec
  5. Format profile                           : [email protected]
  6. Format settings                          : CABAC / 8 Ref Frames
  7. Format settings, CABAC                   : Yes
  8. Format settings, Reference frames        : 8 frames
  9. Codec ID                                 : V_MPEG4/ISO/AVC
  10. Duration                                 : 1 h 55 min
  11. Bit rate                                 : 3 187 kb/s
  12. Width                                    : 1 280 pixels
  13. Height                                   : 690 pixels
  14. Display aspect ratio                     : 1.85:1
  15. Frame rate mode                          : Constant
  16. Frame rate                               : 24.000 FPS
  17. Color space                              : YUV
  18. Chroma subsampling                       : 4:2:0
  19. Bit depth                                : 8 bits
  20. Scan type                                : Progressive
  21. Bits/(Pixel*Frame)                       : 0.150
  22. Stream size                              : 2.58 GiB (83%)
  23. Writing library                          : x264 core 159 r2991 1771b55
  24. Encoding settings                        : cabac=1 / ref=8 / deblock=1:-3:-3 / analyse=0x3:0x133 / me=umh / subme=9 / psy=1 / psy_rd=0.90:0.00 / mixed_ref=1 / me_range=16 / chroma_me=1 / trellis=2 / 8x8dct=1 / cqm=0 / deadzone=21,11 / fast_pskip=1 / chroma_qp_offset=-2 / threads=18 / lookahead_threads=1 / sliced_threads=0 / nr=0 / decimate=1 / interlaced=0 / bluray_compat=0 / constrained_intra=0 / bframes=3 / b_pyramid=2 / b_adapt=2 / b_bias=0 / direct=3 / weightb=1 / open_gop=0 / weightp=2 / keyint=250 / keyint_min=24 / scenecut=40 / intra_refresh=0 / rc_lookahead=60 / rc=crf / mbtree=1 / crf=16.5 / qcomp=0.60 / qpmin=0 / qpmax=69 / qpstep=4 / ip_ratio=1.40 / aq=3:0.60
  25. Language                                 : English
  26. Default                                  : Yes
  27. Forced                                   : No
  28. Color range                              : Limited
  29. Matrix coefficients                      : BT.709

  30. Audio
  31. ID                                       : 2
  32. Format                                   : AC-3
  33. Format/Info                              : Audio Coding 3
  34. Commercial name                          : Dolby Digital
  35. Codec ID                                 : A_AC3
  36. Duration                                 : 1 h 55 min
  37. Bit rate mode                            : Constant
  38. Bit rate                                 : 640 kb/s
  39. Channel(s)                               : 6 channels
  40. Channel layout                           : L R C LFE Ls Rs
  41. Sampling rate                            : 48.0 kHz
  42. Frame rate                               : 31.250 FPS (1536 SPF)
  43. Bit depth                                : 16 bits
  44. Compression mode                         : Lossy
  45. Stream size                              : 530 MiB (17%)
  46. Language                                 : Chinese
  47. Service kind                             : Complete Main
  48. Default                                  : Yes
  49. Forced                                   : No

  50. Text #1
  51. ID                                       : 3
  52. Format                                   : UTF-8
  53. Codec ID                                 : S_TEXT/UTF8
  54. Codec ID/Info                            : UTF-8 Plain Text
  55. Duration                                 : 1 h 47 min
  56. Bit rate                                 : 28 b/s
  57. Count of elements                        : 849
  58. Stream size                              : 22.1 KiB (0%)
  59. Title                                    : English
  60. Language                                 : English
  61. Default                                  : Yes
  62. Forced                                   : Yes

  63. Text #2
  64. ID                                       : 4
  65. Format                                   : PGS
  66. Muxing mode                              : zlib
  67. Codec ID                                 : S_HDMV/PGS
  68. Codec ID/Info                            : Picture based subtitle format used on BDs/HD-DVDs
  69. Duration                                 : 1 h 47 min
  70. Bit rate                                 : 14.1 kb/s
  71. Count of elements                        : 1585
  72. Stream size                              : 10.8 MiB (0%)
  73. Title                                    : English
  74. Language                                 : English
  75. Default                                  : No
  76. Forced                                   : No

  77. Text #3
  78. ID                                       : 5
  79. Format                                   : PGS
  80. Muxing mode                              : zlib
  81. Codec ID                                 : S_HDMV/PGS
  82. Codec ID/Info                            : Picture based subtitle format used on BDs/HD-DVDs
  83. Duration                                 : 1 h 47 min
  84. Bit rate                                 : 15.6 kb/s
  85. Count of elements                        : 1612
  86. Stream size                              : 11.9 MiB (0%)
  87. Title                                    : Chinese (traditional)
  88. Language                                 : Chinese
  89. Default                                  : No
  90. Forced                                   : No

  91. Menu
  92. 00:00:00.000                             : en:00:00:00.000
  93. 00:09:29.167                             : en:00:09:29.167
  94. 00:19:41.417                             : en:00:19:41.417
  95. 00:35:53.125                             : en:00:35:53.125
  96. 00:44:31.000                             : en:00:44:31.000
  97. 00:55:39.917                             : en:00:55:39.917
  98. 01:04:21.875                             : en:01:04:21.875
  99. 01:13:08.667                             : en:01:13:08.667
  100. 01:20:54.792                             : en:01:20:54.792
  101. 01:29:49.958                             : en:01:29:49.958
  102. 01:38:28.292                             : en:01:38:28.292
  103. 01:48:03.167                             : en:01:48:03.167
复制代码

范保德 Father.to.Son.2018.720p.BluRay.x264-BiPOLAR 3.12GB-2.png







回复

使用道具 举报

蓝光币
2599
发表于 2020-4-26 23:20:01 | 显示全部楼层
楼主发贴辛苦了,谢谢楼主分享!我觉得蓝光电影网是注册对了!
回复 支持 反对

使用道具 举报

懒得打字嘛,点击右侧快捷回复 【右侧内容,后台自定义】
您需要登录后才可以回帖 登录 | 立即加入

本版积分规则

Archiver|小黑屋| 蓝光电影网 |网站地图

Copyright © 2021 Comsenz Inc. Powered by 蓝光电影网

蓝光电影网

本站内容由用户自主分享和转载自互联网,转载目的在于传递更多信息,并不代表本网赞同其观点和对其真实性负责。

如有侵权、违反国家法律政策行为,请联系我们,我们会第一时间及时清除和处理!

举报反馈邮箱:[email protected]

快速回复 返回顶部 返回列表