找回密码

蓝光电影网

查看: 221|回复: 2

[剧情] 潮浪王子/岁月惊涛 The.Prince.of.Tides.1991.1080p.BluRay.X264-AMIABLE 18.86GB

[复制链接]
蓝光币
511
发表于 2020-4-27 00:03:43 | 显示全部楼层 |阅读模式
MV5BOGQ4NjlhZTktOTBlMi00OTE1LTk1MTAtMDExODY2NzRiZDIyXkEyXkFqcGdeQXVyMTQxNzMzNDI@.jpg

译  名 潮浪王子 / 光阴惊涛
片  名 The Prince of Tides
年  代 1991
产  地 美国
类  别 剧情 / 恋爱
语  言 英语
上映日期 1991-12-25
IMDb评分  6.7/10 from 15370 users
IMDb链接  https://www.imdb.com/title/tt0102713
豆瓣评分 7.8/10 from 595 users
豆瓣链接 https://movie.douban.com/subject/1297398/
片  长 132 分钟
导  演 芭芭拉·史翠珊 Barbra Streisand
编  剧 Becky Johnston / Pat Conroy
主  演 尼克·诺特 Nick Nolte
       芭芭拉·史翠珊 Barbra Streisand


标  签 美国 | 心理 | 恋爱 | 芭芭拉·史翠珊 | 美国电影 | 心理治療 | 1991 | BarbraStreisand

简  介  

  汤姆(尼克·诺特 Nick Nolte 饰)是一个典型的美国南方青年,晚年间不胜回首的童年履历让他长大为了一个沉默寡言愤世嫉俗的汉子,同这个虚与委蛇的天下格格不入。哥哥的死讯让汤姆原本就一团糟的生活堕入了加倍完全的颓丧当中,他和妻子莎莉(布莱思·丹纳 Blythe Danner 饰)之间的豪情亦是以遭受了庞大的危机。
  汤姆有一个名为沙凡娜(梅林达·狄龙 Melinda Dillon 饰)单身一人在纽约闯荡,但是,她扬名立万的消息并非传来,传来的却是沙凡娜自杀得逞住进了精神医院的凶讯。苏珊(芭芭拉·史翠珊 Barbra Streisand 饰)是沙凡娜的主治医生,她发现了苏珊绝口不提的曩昔里隐藏着治愈她的秘方。因而,苏珊找到了汤姆,希望他可以助自己落井下石。

获奖情况  

  第64届奥斯卡金像奖(1992)
  最好影片(提名) 芭芭拉·史翠珊 / Andrew S. Karsch
  最好男配角(提名) 尼克·诺特
  最好女配角(提名) 凯特·尼利甘
  最好改编剧本(提名) 派特·康洛伊 / 贝基·琼斯顿
  最好摄影(提名) 斯蒂芬·戈德布拉特
  最好艺术指导(提名) Caryl Heller / 保罗·席尔勃
  最好原创配乐(提名) 詹姆斯·纽顿·霍华德
  1. Video
  2. ID                                       : 1
  3. Format                                   : AVC
  4. Format/Info                              : Advanced Video Codec
  5. Format profile                           : [email protected]
  6. Format settings                          : CABAC / 4 Ref Frames
  7. Format settings, CABAC                   : Yes
  8. Format settings, Reference frames        : 4 frames
  9. Codec ID                                 : V_MPEG4/ISO/AVC
  10. Duration                                 : 2 h 12 min
  11. Bit rate                                 : 19.1 Mb/s
  12. Width                                    : 1 920 pixels
  13. Height                                   : 1 038 pixels
  14. Display aspect ratio                     : 1.85:1
  15. Frame rate mode                          : Constant
  16. Frame rate                               : 23.976 (24000/1001/189150) FPS
  17. Color space                              : YUV
  18. Chroma subsampling                       : 4:2:0
  19. Bit depth                                : 8 bits
  20. Scan type                                : Progressive
  21. Bits/(Pixel*Frame)                       : 0.399
  22. Stream size                              : 17.6 GiB (93%)
  23. Writing library                          : x264 core 159 r2991 1771b55
  24. Encoding settings                        : cabac=1 / ref=4 / deblock=1:-3:-3 / analyse=0x3:0x133 / me=umh / subme=9 / psy=1 / psy_rd=1.15:0.00 / mixed_ref=1 / me_range=32 / chroma_me=1 / trellis=2 / 8x8dct=1 / cqm=0 / deadzone=21,11 / fast_pskip=0 / chroma_qp_offset=-2 / threads=32 / lookahead_threads=2 / sliced_threads=0 / nr=0 / decimate=0 / interlaced=0 / bluray_compat=0 / constrained_intra=0 / bframes=3 / b_pyramid=2 / b_adapt=2 / b_bias=0 / direct=3 / weightb=1 / open_gop=0 / weightp=2 / keyint=240 / keyint_min=24 / scenecut=40 / intra_refresh=0 / rc=crf / mbtree=0 / crf=21.4 / qcomp=0.60 / qpmin=0 / qpmax=69 / qpstep=4 / ip_ratio=1.40 / pb_ratio=1.30 / aq=3:0.70
  25. Default                                  : Yes
  26. Forced                                   : No
  27. Color range                              : Limited
  28. Matrix coefficients                      : BT.709

  29. Audio #1
  30. ID                                       : 2
  31. Format                                   : FLAC
  32. Format/Info                              : Free Lossless Audio Codec
  33. Codec ID                                 : A_FLAC
  34. Duration                                 : 2 h 12 min
  35. Bit rate mode                            : Variable
  36. Bit rate                                 : 1 294 kb/s
  37. Channel(s)                               : 2 channels
  38. Channel layout                           : L R
  39. Sampling rate                            : 48.0 kHz
  40. Frame rate                               : 11.719 FPS (4096 SPF)
  41. Bit depth                                : 24 bits
  42. Compression mode                         : Lossless
  43. Stream size                              : 1.19 GiB (6%)
  44. Writing library                          : libFLAC 1.2.1 (UTC 2007-09-17)
  45. Language                                 : English
  46. Default                                  : Yes
  47. Forced                                   : No

  48. Audio #2
  49. ID                                       : 6
  50. Format                                   : AAC LC
  51. Format/Info                              : Advanced Audio Codec Low Complexity
  52. Codec ID                                 : A_AAC-2
  53. Duration                                 : 2 h 12 min
  54. Bit rate                                 : 78.6 kb/s
  55. Channel(s)                               : 1 channel
  56. Channel layout                           : C
  57. Sampling rate                            : 48.0 kHz
  58. Frame rate                               : 46.875 FPS (1024 SPF)
  59. Compression mode                         : Lossy
  60. Delay relative to video                  : 9 ms
  61. Stream size                              : 74.2 MiB (0%)
  62. Title                                    : Commentary featuring Barbara Streisand
  63. Language                                 : English
  64. Default                                  : No
  65. Forced                                   : No

  66. Text #1
  67. ID                                       : 3
  68. Format                                   : UTF-8
  69. Codec ID                                 : S_TEXT/UTF8
  70. Codec ID/Info                            : UTF-8 Plain Text
  71. Duration                                 : 2 h 6 min
  72. Bit rate                                 : 77 b/s
  73. Count of elements                        : 2119
  74. Stream size                              : 71.4 KiB (0%)
  75. Title                                    : Stripped SRT
  76. Language                                 : English
  77. Default                                  : No
  78. Forced                                   : No

  79. Text #2
  80. ID                                       : 4
  81. Format                                   : UTF-8
  82. Codec ID                                 : S_TEXT/UTF8
  83. Codec ID/Info                            : UTF-8 Plain Text
  84. Duration                                 : 2 h 6 min
  85. Bit rate                                 : 86 b/s
  86. Count of elements                        : 2329
  87. Stream size                              : 79.9 KiB (0%)
  88. Title                                    : SDH SRT
  89. Language                                 : English
  90. Default                                  : No
  91. Forced                                   : No

  92. Text #3
  93. ID                                       : 5
  94. Format                                   : PGS
  95. Muxing mode                              : zlib
  96. Codec ID                                 : S_HDMV/PGS
  97. Codec ID/Info                            : Picture based subtitle format used on BDs/HD-DVDs
  98. Duration                                 : 2 h 6 min
  99. Bit rate                                 : 73.0 kb/s
  100. Count of elements                        : 4659
  101. Stream size                              : 66.2 MiB (0%)
  102. Title                                    : English SDH
  103. Language                                 : English
  104. Default                                  : No
  105. Forced                                   : No

  106. Menu #1
  107. 00:00:00.000                             : en:Chapter 01
  108. 00:04:52.125                             : en:Chapter 02
  109. 00:11:52.420                             : en:Chapter 03
  110. 00:17:15.826                             : en:Chapter 04
  111. 00:23:56.185                             : en:Chapter 05
  112. 00:29:48.829                             : en:Chapter 06
  113. 00:32:03.171                             : en:Chapter 07
  114. 00:40:54.535                             : en:Chapter 08
  115. 00:46:31.747                             : en:Chapter 09
  116. 00:55:41.296                             : en:Chapter 10
  117. 01:02:24.574                             : en:Chapter 11
  118. 01:07:59.450                             : en:Chapter 12
  119. 01:14:58.828                             : en:Chapter 13
  120. 01:18:05.639                             : en:Chapter 14
  121. 01:22:49.047                             : en:Chapter 15
  122. 01:38:46.087                             : en:Chapter 16
  123. 01:48:18.826                             : en:Chapter 17
  124. 01:58:35.025                             : en:Chapter 18
  125. 02:07:30.434                             : en:Chapter 19

  126. Menu #2
  127. 00:00:00.054                             : en:Chapter 01
复制代码

潮浪王子/光阴惊涛 The.Prince.of.Tides.1991.1080p.BluRay.X264-AMIABLE 18.86GB-1.png







回复

使用道具 举报

懒得打字嘛,点击右侧快捷回复 【右侧内容,后台自定义】
您需要登录后才可以回帖 登录 | 立即加入

本版积分规则

Archiver|小黑屋| 蓝光电影网 |网站地图

Copyright © 2021 Comsenz Inc. Powered by 蓝光电影网

蓝光电影网

本站内容由用户自主分享和转载自互联网,转载目的在于传递更多信息,并不代表本网赞同其观点和对其真实性负责。

如有侵权、违反国家法律政策行为,请联系我们,我们会第一时间及时清除和处理!

举报反馈邮箱:[email protected]

快速回复 返回顶部 返回列表