找回密码

蓝光电影网

查看: 439|回复: 2

[犯罪] 世系脉络 Line.of.Descent.2019.1080p.BluRay.x264.DTS-HD.MA.5.1-FGT 11.41GB

[复制链接]
蓝光币
519
发表于 2020-4-27 00:14:10 | 显示全部楼层 |阅读模式
MV5BM2U4MGViYzYtNTBjNC00MjIyLWE0ZTEtZjc1Mjk4OGE2NGRhXkEyXkFqcGdeQXVyNDE3Njg0MDY@.jpg

译  名 世系头绪 / The Field
片  名 Line of Descent
年  代 2019
产  地 美国
类  别 犯罪
语  言 英语
上映日期 2019-12-13(美国)
IMDb评分  4.7/10 from 277 users
IMDb链接  https://www.imdb.com/title/tt2257284
豆瓣评分 0/10 from 0 users
豆瓣链接 https://movie.douban.com/subject/26292089/
片  长 108分钟
导  演 Rohit Karn Batra
编  剧 Rohit Karn Batra / Imtiaz Hussain
主  演 雷·利奥塔 Ray Liotta
       洛尼特·罗伊 Ronit Roy
       拉迪卡·艾普特 Radhika Apte
       Anisha Victor
       Prem Chopra
       内拉吉·卡比 Neeraj Kabi
       Ali Haji-Sheikh
       Charlotte Poutrel
       Priyanka Setia
       埃卡瓦利·汗纳 Ekavali Khanna
       Shamata Anchan
       Kinal Mehta
       Ashok Pathak
       马克思·比斯雷 Max Beesley


标  签 美国 | 印度 | 犯罪 | 亚洲 | 2019 | 新导演 | 剧情 | [歐美]

简  介  

  A classic crime narrative in the backdrop of Delhi merges a dysfunctional, mafia family at war with each other as an undercover officer fights his demons by assisting in their downfall.
  1. Video
  2. ID                                       : 1
  3. Format                                   : AVC
  4. Format/Info                              : Advanced Video Codec
  5. Format profile                           : [email protected]
  6. Format settings                          : CABAC / 4 Ref Frames
  7. Format settings, CABAC                   : Yes
  8. Format settings, Reference frames        : 4 frames
  9. Codec ID                                 : V_MPEG4/ISO/AVC
  10. Duration                                 : 1 h 47 min
  11. Bit rate                                 : 11.5 Mb/s
  12. Width                                    : 1 920 pixels
  13. Height                                   : 804 pixels
  14. Display aspect ratio                     : 2.40:1
  15. Frame rate mode                          : Constant
  16. Frame rate                               : 23.976 (24000/1001/189150) FPS
  17. Color space                              : YUV
  18. Chroma subsampling                       : 4:2:0
  19. Bit depth                                : 8 bits
  20. Scan type                                : Progressive
  21. Bits/(Pixel*Frame)                       : 0.311
  22. Stream size                              : 8.66 GiB (76%)
  23. Title                                    : Line.of.Descent.2019.1080p.BluRay.x264.DTS-HD.MA.5.1-FGT
  24. Writing library                          : x264 core 148 r2748 97eaef2
  25. Encoding settings                        : cabac=1 / ref=4 / deblock=1:-2:-2 / analyse=0x3:0x113 / me=umh / subme=9 / psy=1 / psy_rd=1.00:0.15 / mixed_ref=1 / me_range=16 / chroma_me=1 / trellis=2 / 8x8dct=1 / cqm=0 / deadzone=21,11 / fast_pskip=1 / chroma_qp_offset=-3 / threads=72 / lookahead_threads=3 / sliced_threads=0 / nr=0 / decimate=1 / interlaced=0 / bluray_compat=0 / constrained_intra=0 / bframes=3 / b_pyramid=2 / b_adapt=1 / b_bias=0 / direct=3 / weightb=1 / open_gop=0 / weightp=2 / keyint=250 / keyint_min=25 / scenecut=40 / intra_refresh=0 / rc_lookahead=50 / rc=2pass / mbtree=1 / bitrate=11500 / ratetol=1.0 / qcomp=0.60 / qpmin=0 / qpmax=69 / qpstep=4 / cplxblur=20.0 / qblur=0.5 / vbv_maxrate=31250 / vbv_bufsize=31250 / nal_hrd=none / filler=0 / ip_ratio=1.40 / aq=1:1.00
  26. Default                                  : Yes
  27. Forced                                   : No

  28. Audio
  29. ID                                       : 2
  30. Format                                   : DTS XLL
  31. Format/Info                              : Digital Theater Systems
  32. Commercial name                          : DTS-HD Master Audio
  33. Codec ID                                 : A_DTS
  34. Duration                                 : 1 h 47 min
  35. Bit rate mode                            : Variable
  36. Bit rate                                 : 3 648 kb/s
  37. Channel(s)                               : 6 channels
  38. Channel layout                           : C L R Ls Rs LFE
  39. Sampling rate                            : 48.0 kHz
  40. Frame rate                               : 93.750 FPS (512 SPF)
  41. Bit depth                                : 24 bits
  42. Compression mode                         : Lossless
  43. Stream size                              : 2.75 GiB (24%)
  44. Title                                    : Line.of.Descent.2019.1080p.BluRay.x264.DTS-HD.MA.5.1-FGT
  45. Language                                 : English
  46. Default                                  : Yes
  47. Forced                                   : No

  48. Text #1
  49. ID                                       : 3
  50. Format                                   : UTF-8
  51. Codec ID                                 : S_TEXT/UTF8
  52. Codec ID/Info                            : UTF-8 Plain Text
  53. Duration                                 : 1 h 43 min
  54. Bit rate                                 : 26 b/s
  55. Count of elements                        : 870
  56. Stream size                              : 19.8 KiB (0%)
  57. Title                                    : English-SRT
  58. Language                                 : English
  59. Default                                  : Yes
  60. Forced                                   : No

  61. Text #2
  62. ID                                       : 4
  63. Format                                   : PGS
  64. Muxing mode                              : zlib
  65. Codec ID                                 : S_HDMV/PGS
  66. Codec ID/Info                            : Picture based subtitle format used on BDs/HD-DVDs
  67. Duration                                 : 1 h 43 min
  68. Bit rate                                 : 15.4 kb/s
  69. Count of elements                        : 1742
  70. Stream size                              : 11.4 MiB (0%)
  71. Title                                    : English-PGS
  72. Language                                 : English
  73. Default                                  : No
  74. Forced                                   : No

  75. Menu
  76. 00:00:00.000                             : en:Chapter 01
  77. 00:10:30.129                             : en:Chapter 02
  78. 00:20:36.444                             : en:Chapter 03
  79. 00:29:57.671                             : en:Chapter 04
  80. 00:39:49.345                             : en:Chapter 05
  81. 00:49:20.791                             : en:Chapter 06
  82. 00:58:45.522                             : en:Chapter 07
  83. 01:10:58.504                             : en:Chapter 08
  84. 01:20:01.213                             : en:Chapter 09
  85. 01:31:04.125                             : en:Chapter 10
  86. 01:38:02.960                             : en:Chapter 11
  87. 01:43:36.335                             : en:Chapter 12
复制代码

世系头绪 Line.of.Descent.2019.1080p.BluRay.x264.DTS-HD.MA.5.1-FGT 11.41GB-1.png 世系头绪 Line.of.Descent.2019.1080p.BluRay.x264.DTS-HD.MA.5.1-FGT 11.41GB-2.png 世系头绪 Line.of.Descent.2019.1080p.BluRay.x264.DTS-HD.MA.5.1-FGT 11.41GB-3.png






回复

使用道具 举报

懒得打字嘛,点击右侧快捷回复 【右侧内容,后台自定义】
您需要登录后才可以回帖 登录 | 立即加入

本版积分规则

Archiver|小黑屋| 蓝光电影网 |网站地图

Copyright © 2021 Comsenz Inc. Powered by 蓝光电影网

蓝光电影网

本站内容由用户自主分享和转载自互联网,转载目的在于传递更多信息,并不代表本网赞同其观点和对其真实性负责。

如有侵权、违反国家法律政策行为,请联系我们,我们会第一时间及时清除和处理!

举报反馈邮箱:[email protected]

快速回复 返回顶部 返回列表