找回密码

蓝光电影网

查看: 381|回复: 3

[犯罪] 世系脉络 Line.of.Descent.2019.1080p.BluRay.REMUX.AVC.DTS-HD.MA.5.1-FGT 20.05GB

[复制链接]
蓝光币
515
发表于 2020-4-27 00:18:23 | 显示全部楼层 |阅读模式
001625e4jjc7cq71zn8zek.jpg

译  名 世系头绪 / The Field
片  名 Line of Descent
年  代 2019
产  地 美国
类  别 犯罪
语  言 英语
上映日期 2019-12-13(美国)
IMDb评分  4.7/10 from 277 users
IMDb链接  https://www.imdb.com/title/tt2257284
豆瓣评分 0/10 from 0 users
豆瓣链接 https://movie.douban.com/subject/26292089/
片  长 108分钟
导  演 Rohit Karn Batra
编  剧 Rohit Karn Batra / Imtiaz Hussain
主  演 雷·利奥塔 Ray Liotta
       洛尼特·罗伊 Ronit Roy
       拉迪卡·艾普特 Radhika Apte
       Anisha Victor
       Prem Chopra
       内拉吉·卡比 Neeraj Kabi
       Ali Haji-Sheikh
       Charlotte Poutrel
       Priyanka Setia
       埃卡瓦利·汗纳 Ekavali Khanna
       Shamata Anchan
       Kinal Mehta
       Ashok Pathak
       马克思·比斯雷 Max Beesley


标  签 美国 | 印度 | 犯罪 | 亚洲 | 2019 | 新导演 | 剧情 | [歐美]

简  介  

  A classic crime narrative in the backdrop of Delhi merges a dysfunctional, mafia family at war with each other as an undercover officer fights his demons by assisting in their downfall.
  1. Video
  2. ID                                       : 1
  3. Format                                   : AVC
  4. Format/Info                              : Advanced Video Codec
  5. Format profile                           : [email protected]
  6. Format settings                          : CABAC / 4 Ref Frames
  7. Format settings, CABAC                   : Yes
  8. Format settings, Reference frames        : 4 frames
  9. Codec ID                                 : V_MPEG4/ISO/AVC
  10. Duration                                 : 1 h 47 min
  11. Bit rate mode                            : Variable
  12. Bit rate                                 : 23.0 Mb/s
  13. Maximum bit rate                         : 32.0 Mb/s
  14. Width                                    : 1 920 pixels
  15. Height                                   : 1 080 pixels
  16. Display aspect ratio                     : 16:9
  17. Frame rate mode                          : Constant
  18. Frame rate                               : 23.976 (24000/1001/189150) FPS
  19. Color space                              : YUV
  20. Chroma subsampling                       : 4:2:0
  21. Bit depth                                : 8 bits
  22. Scan type                                : Progressive
  23. Bits/(Pixel*Frame)                       : 0.462
  24. Stream size                              : 17.3 GiB (86%)
  25. Title                                    : Line.of.Descent.2019.1080p.BluRay.REMUX.AVC.DTS-HD.MA.5.1-FGT
  26. Language                                 : English
  27. Default                                  : No
  28. Forced                                   : No
  29. Color range                              : Limited
  30. Color primaries                          : BT.709
  31. Transfer characteristics                 : BT.709
  32. Matrix coefficients                      : BT.709

  33. Audio
  34. ID                                       : 2
  35. Format                                   : DTS XLL
  36. Format/Info                              : Digital Theater Systems
  37. Commercial name                          : DTS-HD Master Audio
  38. Codec ID                                 : A_DTS
  39. Duration                                 : 1 h 47 min
  40. Bit rate mode                            : Variable
  41. Bit rate                                 : 3 648 kb/s
  42. Channel(s)                               : 6 channels
  43. Channel layout                           : C L R Ls Rs LFE
  44. Sampling rate                            : 48.0 kHz
  45. Frame rate                               : 93.750 FPS (512 SPF)
  46. Bit depth                                : 24 bits
  47. Compression mode                         : Lossless
  48. Stream size                              : 2.75 GiB (14%)
  49. Title                                    : Line.of.Descent.2019.1080p.BluRay.REMUX.AVC.DTS-HD.MA.5.1-FGT
  50. Language                                 : English
  51. Default                                  : Yes
  52. Forced                                   : No

  53. Text #1
  54. ID                                       : 3
  55. Format                                   : UTF-8
  56. Codec ID                                 : S_TEXT/UTF8
  57. Codec ID/Info                            : UTF-8 Plain Text
  58. Duration                                 : 1 h 43 min
  59. Bit rate                                 : 26 b/s
  60. Count of elements                        : 870
  61. Stream size                              : 19.8 KiB (0%)
  62. Title                                    : English-SRT
  63. Language                                 : English
  64. Default                                  : Yes
  65. Forced                                   : No

  66. Text #2
  67. ID                                       : 4
  68. Format                                   : PGS
  69. Muxing mode                              : zlib
  70. Codec ID                                 : S_HDMV/PGS
  71. Codec ID/Info                            : Picture based subtitle format used on BDs/HD-DVDs
  72. Duration                                 : 1 h 43 min
  73. Bit rate                                 : 15.4 kb/s
  74. Count of elements                        : 1742
  75. Stream size                              : 11.4 MiB (0%)
  76. Title                                    : English-PGS
  77. Language                                 : English
  78. Default                                  : No
  79. Forced                                   : No

  80. Menu
  81. 00:00:00.000                             : en:Chapter 01
  82. 00:10:30.129                             : en:Chapter 02
  83. 00:20:36.276                             : en:Chapter 03
  84. 00:29:57.462                             : en:Chapter 04
  85. 00:39:49.178                             : en:Chapter 05
  86. 00:49:20.791                             : en:Chapter 06
  87. 00:58:45.522                             : en:Chapter 07
  88. 01:10:58.462                             : en:Chapter 08
  89. 01:20:01.213                             : en:Chapter 09
  90. 01:31:04.125                             : en:Chapter 10
  91. 01:38:02.668                             : en:Chapter 11
  92. 01:43:36.335                             : en:Chapter 12
复制代码

世系头绪 Line.of.Descent.2019.1080p.BluRay.REMUX.AVC.DTS-HD.MA.5.1-FGT 20.05GB-1.png 世系头绪 Line.of.Descent.2019.1080p.BluRay.REMUX.AVC.DTS-HD.MA.5.1-FGT 20.05GB-2.png 世系头绪 Line.of.Descent.2019.1080p.BluRay.REMUX.AVC.DTS-HD.MA.5.1-FGT 20.05GB-3.png







回复

使用道具 举报

懒得打字嘛,点击右侧快捷回复 【右侧内容,后台自定义】
您需要登录后才可以回帖 登录 | 立即加入

本版积分规则

Archiver|小黑屋| 蓝光电影网 |网站地图

Copyright © 2021 Comsenz Inc. Powered by 蓝光电影网

蓝光电影网

本站内容由用户自主分享和转载自互联网,转载目的在于传递更多信息,并不代表本网赞同其观点和对其真实性负责。

如有侵权、违反国家法律政策行为,请联系我们,我们会第一时间及时清除和处理!

举报反馈邮箱:[email protected]

快速回复 返回顶部 返回列表