找回密码

蓝光电影网

查看: 928|回复: 7

[合集] [真爱如血/True Blood 第一至七季][全07季打包][BD-MKV][1080P]

[复制链接]
蓝光币
515
发表于 2020-4-27 00:41:05 | 显示全部楼层 |阅读模式
[真爱如血/True Blood 第一至七季][全07季打包][BD-MKV][1080P]-1.jpg

译  名 真爱如血/ 噬血真爱/ 真爱如血/ 真血/ 血夜迷情

片  名 True Blood

年  代 2008

产  地 美国

类  别 剧情 / 奇异

语  言 英语

上映日期 2008-09-07

IMDb评分 7.9/10 from 216010 users

IMDb链接 http://www.imdb.com/title/tt0844441

豆瓣评分 7.5/10 from 20316 users

豆瓣链接 https://movie.douban.com/subject/4889423/

片  长 58 分钟

导  演 艾伦·鲍尔 Alan Ball / 麦克·勒曼 Michael Lehmann / Scott Winant

编  剧 艾伦·鲍尔 Alan Ball

主  演 安娜·帕奎因 Anna Paquin

      史蒂芬·莫耶 Stephen Moyer

      山姆·特拉梅尔 Sam Trammell

      瑞恩·柯万腾 Ryan Kwanten

      Rutina Wesley

      亚历山大·斯卡斯加德 Alexander Skarsgård

      克里斯汀·鲍尔 Kristin Bauer

      黛博拉·安沃尔 Deborah Ann Woll










简  介




  按照畅销吸血鬼小说《南方吸血鬼》(Southern Vampire)改编。

人们惧怕吸血鬼的时代已经曩昔,现在是酿成吸血鬼惧怕人类。在路易斯安纳州的小镇Bon Temps上,电视说话节目日日会商到底要不要让吸血鬼正当权益经过,赞成的人和否决的人态度一样剧烈。吸血鬼不需要再经过吸人血大概是动物的血来维生,而是去采办由日本人生产的——真血(true blood)。

我们的女配角Sookie Stackhouse(Anna Paquin 饰)是小镇上普通的女招待,她不普通的地方在于她能闻声人们心底的话音,这个特异功用不单让她备受困扰,更令她数次恋爱失利。当她与Bill Compton(Stephen Moyer饰)相遇时,她欣喜地发现她听不见对方心里的声音!Bill 是一个吸血鬼,吸血鬼的社会职位不高让他每次出现都似乎一个异类,只要善良天真的Sookie从不用异常眼光看待他……本片妙趣横生,对吸血鬼这个弱势群体停止了活泼的描摹。




获奖情况




  第66届金球奖(2009)

  电视类 最好剧情类剧集(提名)

  电视类 剧情类剧集最好女配角 安娜·帕奎因








  1. Video
  2. ID : 1
  3. Format : AVC
  4. Format/Info : Advanced Video Codec
  5. Format profile : [email protected]
  6. Format settings, CABAC : Yes
  7. Format settings, ReFrames : 4 frames
  8. Codec ID : V_MPEG4/ISO/AVC
  9. Duration : 54mn 14s
  10. Bit rate : 8 977 Kbps
  11. Width : 1 920 pixels
  12. Height : 1 080 pixels
  13. Display aspect ratio : 16:9
  14. Frame rate mode : Constant
  15. Frame rate : 23.976 fps
  16. Color space : YUV
  17. Chroma subsampling : 4:2:0
  18. Bit depth : 8 bits
  19. Scan type : Progressive
  20. Bits/(Pixel*Frame) : 0.181
  21. Stream size : 3.32 GiB (84%)
  22. Title : True.Blood.S01E02
  23. Writing library : x264 core 80 r1373M 4322f63
  24. Encoding settings : cabac=1 / ref=4 / deblock=1:0:0 / analyse=0x3:0x133 / me=umh / subme=7 / psy=1 / psy_rd=1.0:0.0 / mixed_ref=1 / me_range=16 / chroma_me=1 / trellis=1 / 8x8dct=1 / cqm=0 / deadzone=21,11 / fast_pskip=0 / chroma_qp_offset=-2 / threads=3 / sliced_threads=0 / nr=0 / decimate=0 / mbaff=0 / constrained_intra=0 / bframes=3 / b_pyramid=0 / b_adapt=1 / b_bias=0 / direct=1 / wpredb=1 / wpredp=2 / keyint=250 / keyint_min=25 / scenecut=40 / rc_lookahead=30 / rc=2pass / mbtree=1 / bitrate=8977 / ratetol=1.0 / qcomp=0.60 / qpmin=10 / qpmax=51 / qpstep=4 / cplxblur=20.0 / qblur=0.5 / ip_ratio=1.40 / aq=1:1.00
  25. Language : English
  26. Default : No
  27. Forced : No

  28. Audio
  29. ID : 2
  30. Format : DTS
  31. Format/Info : Digital Theater Systems
  32. Mode : 16
  33. Format settings, Endianness : Big
  34. Codec ID : A_DTS
  35. Duration : 54mn 14s
  36. Bit rate mode : Constant
  37. Bit rate : 1 509 Kbps
  38. Channel(s) : 6 channels
  39. Channel positions : Front: L C R, Side: L R, LFE
  40. Sampling rate : 48.0 KHz
  41. Frame rate : 93.750 fps (512 spf)
  42. Bit depth : 24 bits
  43. Compression mode : Lossy
  44. Stream size : 585 MiB (14%)
  45. Title : English
  46. Language : English
  47. Default : Yes
  48. Forced : No

  49. Text
  50. ID : 3
  51. Format : UTF-8
  52. Codec ID : S_TEXT/UTF8
  53. Codec ID/Info : UTF-8 Plain Text
  54. Title : English
  55. Language : English
  56. Default : Yes
  57. Forced : No
复制代码





[真爱如血/True Blood 第一至七季][全07季打包][BD-MKV][1080P]-2.jpg [真爱如血/True Blood 第一至七季][全07季打包][BD-MKV][1080P]-3.jpg
[真爱如血/True Blood 第一至七季][全07季打包][BD-MKV][1080P]-4.jpg [真爱如血/True Blood 第一至七季][全07季打包][BD-MKV][1080P]-5.jpg





回复

使用道具 举报

蓝光币
626
发表于 2020-4-27 09:34:09 | 显示全部楼层

楼主太厉害了!楼主,电影应该很好看我觉得蓝光电影网真是个好地方!
回复 支持 反对

使用道具 举报

懒得打字嘛,点击右侧快捷回复 【右侧内容,后台自定义】
您需要登录后才可以回帖 登录 | 立即加入

本版积分规则

Archiver|小黑屋| 蓝光电影网 |网站地图

Copyright © 2021 Comsenz Inc. Powered by 蓝光电影网

蓝光电影网

本站内容由用户自主分享和转载自互联网,转载目的在于传递更多信息,并不代表本网赞同其观点和对其真实性负责。

如有侵权、违反国家法律政策行为,请联系我们,我们会第一时间及时清除和处理!

举报反馈邮箱:[email protected]

快速回复 返回顶部 返回列表