找回密码

蓝光电影网

查看: 433|回复: 4

[动作] 冻伤 Frost.Bite.2012.1080p.BluRay.x264-FLHD 5.71GB

[复制链接]
蓝光币
515
发表于 2020-4-27 13:29:40 | 显示全部楼层 |阅读模式
MV5BOTMyOTE2NzI1MV5BMl5BanBnXkFtZTcwNjkyODY5Ng@@._V1_.jpg

译  名 冻伤
片  名 Frost Bite
年  代 2011
产  地 美国
类  别 行动 / 可骇
语  言 英语
上映日期 2011
IMDb评分  3.4/10 from 66 users
IMDb链接  https://www.imdb.com/title/tt1893241
豆瓣评分 0/10 from 0 users
豆瓣链接 https://movie.douban.com/subject/10472604/
导  演 Joe Davison
编  剧 Joe Davison
主  演 Cassandre Leigh ....Reagan
       Cheyenne Buchanan ....Regis
       Arthur Moonin ....Woods
       Joe Davison ....Luke
       André Reissig ....Colby Jack
       Steve Sterling ....John


标  签 可骇 | 国外电影 | 丧尸片 | 美国电影 | 行动 | PT | 2011

简  介  

  Several months after a zombie outbreak Frost Bite is the last town in Alaska. For John Bannister and his team of survivors it's what they call home, and it's all they got. Now, an unforeseen evil has risen, and his name is Regis, and he wants everything they have. Zombies are one thing, but Raiders are something else entirely.
  1. Video
  2. ID                                       : 1
  3. Format                                   : AVC
  4. Format/Info                              : Advanced Video Codec
  5. Format profile                           : [email protected]
  6. Format settings                          : CABAC / 4 Ref Frames
  7. Format settings, CABAC                   : Yes
  8. Format settings, Reference frames        : 4 frames
  9. Muxing mode                              : Header stripping
  10. Codec ID                                 : V_MPEG4/ISO/AVC
  11. Duration                                 : 1 h 19 min
  12. Bit rate                                 : 9 877 kb/s
  13. Width                                    : 1 920 pixels
  14. Height                                   : 1 080 pixels
  15. Display aspect ratio                     : 16:9
  16. Frame rate mode                          : Constant
  17. Frame rate                               : 25.000 FPS
  18. Color space                              : YUV
  19. Chroma subsampling                       : 4:2:0
  20. Bit depth                                : 8 bits
  21. Scan type                                : Progressive
  22. Bits/(Pixel*Frame)                       : 0.191
  23. Stream size                              : 5.34 GiB (94%)
  24. Writing library                          : x264 core 120 r2145 748fe16
  25. Encoding settings                        : cabac=1 / ref=4 / deblock=1:-1:-1 / analyse=0x3:0x113 / me=umh / subme=7 / psy=1 / psy_rd=1.00:0.00 / mixed_ref=1 / me_range=16 / chroma_me=1 / trellis=1 / 8x8dct=1 / cqm=0 / deadzone=21,11 / fast_pskip=1 / chroma_qp_offset=-2 / threads=12 / sliced_threads=0 / nr=0 / decimate=1 / interlaced=0 / bluray_compat=0 / constrained_intra=0 / bframes=3 / b_pyramid=2 / b_adapt=2 / b_bias=0 / direct=3 / weightb=1 / open_gop=0 / weightp=2 / keyint=250 / keyint_min=25 / scenecut=40 / intra_refresh=0 / rc_lookahead=40 / rc=2pass / mbtree=1 / bitrate=9877 / ratetol=1.0 / qcomp=0.60 / qpmin=0 / qpmax=69 / qpstep=4 / cplxblur=20.0 / qblur=0.5 / vbv_maxrate=50000 / vbv_bufsize=50000 / nal_hrd=none / ip_ratio=1.40 / aq=1:1.00
  26. Language                                 : English
  27. Default                                  : Yes
  28. Forced                                   : Yes

  29. Audio
  30. ID                                       : 2
  31. Format                                   : AC-3
  32. Format/Info                              : Audio Coding 3
  33. Commercial name                          : Dolby Digital
  34. Muxing mode                              : Header stripping
  35. Codec ID                                 : A_AC3
  36. Duration                                 : 1 h 19 min
  37. Bit rate mode                            : Constant
  38. Bit rate                                 : 448 kb/s
  39. Channel(s)                               : 2 channels
  40. Channel layout                           : L R
  41. Sampling rate                            : 48.0 kHz
  42. Frame rate                               : 31.250 FPS (1536 SPF)
  43. Bit depth                                : 16 bits
  44. Compression mode                         : Lossy
  45. Stream size                              : 253 MiB (4%)
  46. Language                                 : English
  47. Service kind                             : Complete Main
  48. Default                                  : Yes
  49. Forced                                   : Yes
复制代码

冻伤 Frost.Bite.2012.1080p.BluRay.x264-FLHD 5.71GB-1.png 冻伤 Frost.Bite.2012.1080p.BluRay.x264-FLHD 5.71GB-2.png 冻伤 Frost.Bite.2012.1080p.BluRay.x264-FLHD 5.71GB-3.png







回复

使用道具 举报

蓝光币
1506
发表于 2020-4-27 14:32:59 | 显示全部楼层
楼主发贴辛苦了,谢谢楼主分享!我觉得蓝光电影网是注册对了!
回复 支持 反对

使用道具 举报

蓝光币
641
发表于 2020-4-28 09:04:14 | 显示全部楼层
谢谢楼主无私分享。
回复 支持 反对

使用道具 举报

蓝光币
336
发表于 2020-5-16 22:05:03 | 显示全部楼层

这个帖子不回对不起自己!我想我是一天也不能离开蓝光电影网
回复 支持 反对

使用道具 举报

懒得打字嘛,点击右侧快捷回复 【右侧内容,后台自定义】
您需要登录后才可以回帖 登录 | 立即加入

本版积分规则

Archiver|小黑屋| 蓝光电影网 |网站地图

Copyright © 2021 Comsenz Inc. Powered by 蓝光电影网

蓝光电影网

本站内容由用户自主分享和转载自互联网,转载目的在于传递更多信息,并不代表本网赞同其观点和对其真实性负责。

如有侵权、违反国家法律政策行为,请联系我们,我们会第一时间及时清除和处理!

举报反馈邮箱:[email protected]

快速回复 返回顶部 返回列表