找回密码

蓝光电影网

查看: 337|回复: 4

[剧情] 少年黑手党 Piranhas.2019.720p.BluRay.x264-USURY 6.04GB

[复制链接]
蓝光币
515
发表于 2020-4-27 13:34:48 | 显示全部楼层 |阅读模式
少年黑手党 Piranhas.2019.720p.BluRay.x264-USURY 6.04GB-1.png

译  名 少年黑手党 / Piranhas / 陌头少年 / 花天酒地拿坡里(港)
片  名 La Paranza dei Bambini
年  代 2019
产  地 意大利
类  别 剧情
语  言 意大利语
上映日期 2019-02-12(柏林电影节) / 2019-02-14(意大利)
IMDb评分  6.4/10 from 2895 users
IMDb链接  https://www.imdb.com/title/tt8740778
豆瓣评分 7.1/10 from 1548 users
豆瓣链接 https://movie.douban.com/subject/30427478/
片  长 110分钟
导  演 克劳迪欧·吉瓦内斯 Claudio Giovannesi
编  剧 毛里齐奥·布拉奇 Maurizio Braucci / 克劳迪欧·吉瓦内斯 Claudio Giovannesi / 罗伯特·萨维亚诺 Roberto Saviano
主  演 薇薇安娜·阿普雷亚 Viviana Aprea
       马蒂亚·皮亚诺·德尔·巴尔佐 Mattia Piano Del Balzo
       弗朗西斯科·迪·那布勒 Francesco Di Napoli
       帕斯夸尔·马洛塔 Pasquale Marotta
       阿涅洛·阿雷纳 Aniello Arena


标  签 意大利 | 黑帮 | 犯罪 | 青春 | 2019 | 剧情 | 柏林电影节 | 第69届柏林电影节

简  介  

  一群十几岁的男孩拿动手枪和AK-47在那不勒斯的街道上巡查,以履行他们的大盗头子标号令。

获奖情况  

  第69届柏林国际电影节(2019)
  金熊奖(提名) 克劳迪欧·吉瓦内斯
  银熊奖 最好剧本 克劳迪欧·吉瓦内斯

  第32届欧洲电影奖(2019)
  最好摄影(提名)

  第65届意大利大卫奖(2020)
  最好影片(提名)
  最好导演(提名) 克劳迪欧·吉瓦内斯
  最好改编剧本(提名) 毛里齐奥·布拉奇 / 克劳迪欧·吉瓦内斯
  1. Video
  2. ID                                       : 1
  3. Format                                   : AVC
  4. Format/Info                              : Advanced Video Codec
  5. Format profile                           : [email protected]
  6. Format settings                          : CABAC / 12 Ref Frames
  7. Format settings, CABAC                   : Yes
  8. Format settings, Reference frames        : 12 frames
  9. Codec ID                                 : V_MPEG4/ISO/AVC
  10. Duration                                 : 1 h 51 min
  11. Bit rate                                 : 7 095 kb/s
  12. Width                                    : 1 280 pixels
  13. Height                                   : 536 pixels
  14. Display aspect ratio                     : 2.40:1
  15. Frame rate mode                          : Constant
  16. Frame rate                               : 23.976 (24000/1001/189150) FPS
  17. Color space                              : YUV
  18. Chroma subsampling                       : 4:2:0
  19. Bit depth                                : 8 bits
  20. Scan type                                : Progressive
  21. Bits/(Pixel*Frame)                       : 0.431
  22. Stream size                              : 5.53 GiB (92%)
  23. Writing library                          : x264 core 159 r2991 1771b55
  24. Encoding settings                        : cabac=1 / ref=12 / deblock=1:-3:-3 / analyse=0x3:0x133 / me=umh / subme=10 / psy=1 / psy_rd=1.00:0.15 / mixed_ref=1 / me_range=24 / chroma_me=1 / trellis=2 / 8x8dct=1 / cqm=0 / deadzone=21,11 / fast_pskip=1 / chroma_qp_offset=-3 / threads=17 / lookahead_threads=2 / sliced_threads=0 / nr=0 / decimate=1 / interlaced=0 / bluray_compat=0 / constrained_intra=0 / bframes=8 / b_pyramid=2 / b_adapt=2 / b_bias=0 / direct=3 / weightb=1 / open_gop=0 / weightp=2 / keyint=250 / keyint_min=23 / scenecut=40 / intra_refresh=0 / rc_lookahead=60 / rc=crf / mbtree=1 / crf=15.0 / qcomp=0.60 / qpmin=0 / qpmax=69 / qpstep=4 / ip_ratio=1.40 / aq=3:0.70
  25. Language                                 : English
  26. Default                                  : Yes
  27. Forced                                   : No
  28. Color range                              : Limited
  29. Matrix coefficients                      : BT.709

  30. Audio
  31. ID                                       : 2
  32. Format                                   : AC-3
  33. Format/Info                              : Audio Coding 3
  34. Commercial name                          : Dolby Digital
  35. Codec ID                                 : A_AC3
  36. Duration                                 : 1 h 51 min
  37. Bit rate mode                            : Constant
  38. Bit rate                                 : 640 kb/s
  39. Channel(s)                               : 6 channels
  40. Channel layout                           : L R C LFE Ls Rs
  41. Sampling rate                            : 48.0 kHz
  42. Frame rate                               : 31.250 FPS (1536 SPF)
  43. Bit depth                                : 16 bits
  44. Compression mode                         : Lossy
  45. Stream size                              : 511 MiB (8%)
  46. Language                                 : Italian
  47. Service kind                             : Complete Main
  48. Default                                  : Yes
  49. Forced                                   : No

  50. Text #1
  51. ID                                       : 3
  52. Format                                   : UTF-8
  53. Codec ID                                 : S_TEXT/UTF8
  54. Codec ID/Info                            : UTF-8 Plain Text
  55. Duration                                 : 1 h 42 min
  56. Bit rate                                 : 42 b/s
  57. Count of elements                        : 1400
  58. Stream size                              : 32.3 KiB (0%)
  59. Title                                    : English
  60. Language                                 : English
  61. Default                                  : Yes
  62. Forced                                   : Yes

  63. Text #2
  64. ID                                       : 4
  65. Format                                   : PGS
  66. Muxing mode                              : zlib
  67. Codec ID                                 : S_HDMV/PGS
  68. Codec ID/Info                            : Picture based subtitle format used on BDs/HD-DVDs
  69. Duration                                 : 1 h 42 min
  70. Bit rate                                 : 11.2 kb/s
  71. Count of elements                        : 2800
  72. Stream size                              : 8.26 MiB (0%)
  73. Title                                    : English
  74. Language                                 : English
  75. Default                                  : No
  76. Forced                                   : No

  77. Menu
  78. 00:00:00.000                             : en:00:00:00.000
  79. 00:04:38.570                             : en:00:04:38.570
  80. 00:12:31.250                             : en:00:12:31.250
  81. 00:19:53.818                             : en:00:19:53.818
  82. 00:28:50.103                             : en:00:28:50.103
  83. 00:35:19.284                             : en:00:35:19.284
  84. 00:45:41.489                             : en:00:45:41.489
  85. 00:54:48.118                             : en:00:54:48.118
  86. 01:02:59.943                             : en:01:02:59.943
  87. 01:13:07.717                             : en:01:13:07.717
  88. 01:24:24.309                             : en:01:24:24.309
  89. 01:32:57.197                             : en:01:32:57.197
  90. 01:41:50.146                             : en:01:41:50.146
  91. 01:46:36.849                             : en:01:46:36.849
复制代码

少年黑手党 Piranhas.2019.720p.BluRay.x264-USURY 6.04GB-2.png






回复

使用道具 举报

蓝光币
380
发表于 2020-4-28 14:59:20 | 显示全部楼层

其实我一直觉得楼主的品味不错!呵呵!蓝光电影网太棒了!
回复 支持 反对

使用道具 举报

懒得打字嘛,点击右侧快捷回复 【右侧内容,后台自定义】
您需要登录后才可以回帖 登录 | 立即加入

本版积分规则

Archiver|小黑屋| 蓝光电影网 |网站地图

Copyright © 2021 Comsenz Inc. Powered by 蓝光电影网

蓝光电影网

本站内容由用户自主分享和转载自互联网,转载目的在于传递更多信息,并不代表本网赞同其观点和对其真实性负责。

如有侵权、违反国家法律政策行为,请联系我们,我们会第一时间及时清除和处理!

举报反馈邮箱:[email protected]

快速回复 返回顶部 返回列表