找回密码

蓝光电影网

查看: 330|回复: 2

[剧情] 我仍然相信/依然相信 I.Still.Believe.2020.1080p.BluRay.REMUX.AVC.DTS-HD.MA.TrueHD.7.1.Atmos-FGT 36.02GB

[复制链接]
蓝光币
511
发表于 2020-4-28 20:58:38 | 显示全部楼层 |阅读模式
我仍然相信/仍然相信 I.Still.Believe.2020.1080p.BluRay.REMUX.AVC.DTS-HD.MA.TrueHD.7.1.Atmos-FGT 36.02GB-1.png

译  名 我仍然相信 / 仍然相信(台) / 信心依存
片  名 I Still Believe
年  代 2020
产  地 美国
类  别 剧情 / 恋爱 / 音乐
语  言 英语
上映日期 2020-03-13(美国)
IMDb评分  6.5/10 from 2545 users
IMDb链接  https://www.imdb.com/title/tt9779516
豆瓣评分 6.1/10 from 132 users
豆瓣链接 https://movie.douban.com/subject/34802738/
片  长 115分钟
导  演 安德鲁·欧文 Andrew Erwin / 乔恩·欧文 Jon Erwin
编  剧 乔恩·欧文 Jon Erwin / 乔·戈恩 Jon Gunn
主  演 布丽特·罗伯森 Britt Robertson
       K·J·阿帕 K.J. Apa
       梅丽莎·罗斯伯格 Melissa Roxburgh
       阿比盖尔·F·考恩 Abigail F. Cowen
       加里·西尼斯 Gary Sinise
       内森·帕森斯 Nathan Parsons
       仙妮娅·唐恩 Shania Twain
       鲁本·多德 Reuben Dodd
       卡梅伦·阿内特 Cameron Arnett
       塔妮娅·克里斯汀森 Tanya Christiansen
       谢·杜伊特 Sheé Dueitt
       尼古拉斯·G·西姆斯 Nicholas G. Sims
       艾莉莎·冈萨雷斯 Alyssa Gonzalez
       格里芬·胡德 Griffin Hood


标  签 恋爱 | 音乐 | 美国 | 实在事务改编 | 信仰 | 电影 | 2020 | 基督教

简  介  

  报告了基督教音乐明星杰里米·坎普的实在生活故事和他爱与落空的旅程,这似乎证实了永久都有希望。
  1. Video
  2. ID                                       : 1
  3. Format                                   : AVC
  4. Format/Info                              : Advanced Video Codec
  5. Format profile                           : [email protected]
  6. Format settings                          : CABAC / 4 Ref Frames
  7. Format settings, CABAC                   : Yes
  8. Format settings, Reference frames        : 4 frames
  9. Codec ID                                 : V_MPEG4/ISO/AVC
  10. Duration                                 : 1 h 56 min
  11. Bit rate mode                            : Variable
  12. Bit rate                                 : 34.8 Mb/s
  13. Maximum bit rate                         : 36.0 Mb/s
  14. Width                                    : 1 920 pixels
  15. Height                                   : 1 080 pixels
  16. Display aspect ratio                     : 16:9
  17. Frame rate mode                          : Constant
  18. Frame rate                               : 23.976 (24000/1001/189150) FPS
  19. Color space                              : YUV
  20. Chroma subsampling                       : 4:2:0
  21. Bit depth                                : 8 bits
  22. Scan type                                : Progressive
  23. Bits/(Pixel*Frame)                       : 0.700
  24. Stream size                              : 28.3 GiB (79%)
  25. Title                                    : I.Still.Believe.2020.1080p.BluRay.REMUX.AVC.DTS-HD.MA.TrueHD.7.1.Atmos-FGT
  26. Language                                 : English
  27. Default                                  : No
  28. Forced                                   : No

  29. Audio #1
  30. ID                                       : 2
  31. Format                                   : MLP FBA 16-ch
  32. Format/Info                              : Meridian Lossless Packing FBA with 16-channel presentation
  33. Commercial name                          : Dolby TrueHD with Dolby Atmos
  34. Codec ID                                 : A_TRUEHD
  35. Duration                                 : 1 h 56 min
  36. Bit rate mode                            : Variable
  37. Bit rate                                 : 3 943 kb/s
  38. Maximum bit rate                         : 6 753 kb/s
  39. Channel(s)                               : 8 channels
  40. Channel layout                           : L R C LFE Ls Rs Lb Rb
  41. Sampling rate                            : 48.0 kHz
  42. Frame rate                               : 1 200.000 FPS (40 SPF)
  43. Compression mode                         : Lossless
  44. Stream size                              : 3.21 GiB (9%)
  45. Title                                    : I.Still.Believe.2020.1080p.BluRay.REMUX.AVC.DTS-HD.MA.TrueHD.7.1.Atmos-FGT
  46. Language                                 : English
  47. Default                                  : Yes
  48. Forced                                   : No
  49. Number of dynamic objects                : 11
  50. Bed channel count                        : 1 channel
  51. Bed channel configuration                : LFE

  52. Audio #2
  53. ID                                       : 3
  54. Format                                   : DTS XLL
  55. Format/Info                              : Digital Theater Systems
  56. Commercial name                          : DTS-HD Master Audio
  57. Codec ID                                 : A_DTS
  58. Duration                                 : 1 h 56 min
  59. Bit rate mode                            : Variable
  60. Bit rate                                 : 3 932 kb/s
  61. Channel(s)                               : 8 channels
  62. Channel layout                           : C L R LFE Lb Rb Lss Rss
  63. Sampling rate                            : 48.0 kHz
  64. Frame rate                               : 93.750 FPS (512 SPF)
  65. Bit depth                                : 24 bits
  66. Compression mode                         : Lossless
  67. Stream size                              : 3.20 GiB (9%)
  68. Title                                    : I.Still.Believe.2020.1080p.BluRay.REMUX.AVC.DTS-HD.MA.TrueHD.7.1.Atmos-FGT
  69. Language                                 : English
  70. Default                                  : No
  71. Forced                                   : No

  72. Audio #3
  73. ID                                       : 4
  74. Format                                   : AC-3
  75. Format/Info                              : Audio Coding 3
  76. Commercial name                          : Dolby Digital
  77. Codec ID                                 : A_AC3
  78. Duration                                 : 1 h 56 min
  79. Bit rate mode                            : Constant
  80. Bit rate                                 : 448 kb/s
  81. Channel(s)                               : 6 channels
  82. Channel layout                           : L R C LFE Ls Rs
  83. Sampling rate                            : 48.0 kHz
  84. Frame rate                               : 31.250 FPS (1536 SPF)
  85. Bit depth                                : 16 bits
  86. Compression mode                         : Lossy
  87. Stream size                              : 373 MiB (1%)
  88. Title                                    : I.Still.Believe.2020.1080p.BluRay.REMUX.AVC.DTS-HD.MA.TrueHD.7.1.Atmos-FGT
  89. Language                                 : English
  90. Service kind                             : Complete Main
  91. Default                                  : No
  92. Forced                                   : No

  93. Audio #4
  94. ID                                       : 5
  95. Format                                   : AC-3
  96. Format/Info                              : Audio Coding 3
  97. Commercial name                          : Dolby Digital
  98. Codec ID                                 : A_AC3
  99. Duration                                 : 1 h 56 min
  100. Bit rate mode                            : Constant
  101. Bit rate                                 : 192 kb/s
  102. Channel(s)                               : 2 channels
  103. Channel layout                           : L R
  104. Sampling rate                            : 48.0 kHz
  105. Frame rate                               : 31.250 FPS (1536 SPF)
  106. Bit depth                                : 16 bits
  107. Compression mode                         : Lossy
  108. Stream size                              : 160 MiB (0%)
  109. Title                                    : I.Still.Believe.2020.1080p.BluRay.REMUX.AVC.DTS-HD.MA.TrueHD.7.1.Atmos-FGT
  110. Language                                 : English
  111. Service kind                             : Complete Main
  112. Default                                  : No
  113. Forced                                   : No

  114. Audio #5
  115. ID                                       : 6
  116. Format                                   : AC-3
  117. Format/Info                              : Audio Coding 3
  118. Commercial name                          : Dolby Digital
  119. Codec ID                                 : A_AC3
  120. Duration                                 : 1 h 56 min
  121. Bit rate mode                            : Constant
  122. Bit rate                                 : 640 kb/s
  123. Channel(s)                               : 6 channels
  124. Channel layout                           : L R C LFE Ls Rs
  125. Sampling rate                            : 48.0 kHz
  126. Frame rate                               : 31.250 FPS (1536 SPF)
  127. Bit depth                                : 16 bits
  128. Compression mode                         : Lossy
  129. Stream size                              : 533 MiB (1%)
  130. Title                                    : I.Still.Believe.2020.1080p.BluRay.REMUX.AVC.DTS-HD.MA.TrueHD.7.1.Atmos-FGT
  131. Language                                 : Spanish
  132. Service kind                             : Complete Main
  133. Default                                  : No
  134. Forced                                   : No

  135. Audio #6
  136. ID                                       : 7
  137. Format                                   : AC-3
  138. Format/Info                              : Audio Coding 3
  139. Commercial name                          : Dolby Digital
  140. Codec ID                                 : A_AC3
  141. Duration                                 : 1 h 56 min
  142. Bit rate mode                            : Constant
  143. Bit rate                                 : 192 kb/s
  144. Channel(s)                               : 2 channels
  145. Channel layout                           : L R
  146. Sampling rate                            : 48.0 kHz
  147. Frame rate                               : 31.250 FPS (1536 SPF)
  148. Bit depth                                : 16 bits
  149. Compression mode                         : Lossy
  150. Stream size                              : 160 MiB (0%)
  151. Title                                    : I.Still.Believe.2020.1080p.BluRay.REMUX.AVC.DTS-HD.MA.TrueHD.7.1.Atmos-FGT
  152. Language                                 : English
  153. Service kind                             : Complete Main
  154. Default                                  : No
  155. Forced                                   : No

  156. Text #1
  157. ID                                       : 8
  158. Format                                   : UTF-8
  159. Codec ID                                 : S_TEXT/UTF8
  160. Codec ID/Info                            : UTF-8 Plain Text
  161. Duration                                 : 1 h 50 min
  162. Bit rate                                 : 50 b/s
  163. Count of elements                        : 1603
  164. Stream size                              : 40.6 KiB (0%)
  165. Title                                    : English-SRT
  166. Language                                 : English
  167. Default                                  : Yes
  168. Forced                                   : No

  169. Text #2
  170. ID                                       : 9
  171. Format                                   : PGS
  172. Muxing mode                              : zlib
  173. Codec ID                                 : S_HDMV/PGS
  174. Codec ID/Info                            : Picture based subtitle format used on BDs/HD-DVDs
  175. Duration                                 : 1 h 50 min
  176. Bit rate                                 : 31.7 kb/s
  177. Count of elements                        : 2988
  178. Stream size                              : 25.0 MiB (0%)
  179. Title                                    : English-PGS
  180. Language                                 : English
  181. Default                                  : No
  182. Forced                                   : No

  183. Text #3
  184. ID                                       : 10
  185. Format                                   : PGS
  186. Muxing mode                              : zlib
  187. Codec ID                                 : S_HDMV/PGS
  188. Codec ID/Info                            : Picture based subtitle format used on BDs/HD-DVDs
  189. Duration                                 : 1 h 51 min
  190. Bit rate                                 : 24.7 kb/s
  191. Count of elements                        : 2598
  192. Stream size                              : 19.7 MiB (0%)
  193. Title                                    : Spanish-PGS
  194. Language                                 : Spanish
  195. Default                                  : No
  196. Forced                                   : No

  197. Text #4
  198. ID                                       : 11
  199. Format                                   : PGS
  200. Muxing mode                              : zlib
  201. Codec ID                                 : S_HDMV/PGS
  202. Codec ID/Info                            : Picture based subtitle format used on BDs/HD-DVDs
  203. Duration                                 : 1 h 51 min
  204. Bit rate                                 : 2 705 b/s
  205. Count of elements                        : 266
  206. Stream size                              : 2.16 MiB (0%)
  207. Title                                    : Spanish-FORCED-PGS
  208. Language                                 : Spanish
  209. Default                                  : No
  210. Forced                                   : No

  211. Text #5
  212. ID                                       : 12
  213. Format                                   : PGS
  214. Muxing mode                              : zlib
  215. Codec ID                                 : S_HDMV/PGS
  216. Codec ID/Info                            : Picture based subtitle format used on BDs/HD-DVDs
  217. Duration                                 : 1 h 51 min
  218. Bit rate                                 : 30.0 kb/s
  219. Count of elements                        : 2820
  220. Stream size                              : 23.9 MiB (0%)
  221. Title                                    : French-PGS
  222. Language                                 : French
  223. Default                                  : No
  224. Forced                                   : No

  225. Menu
  226. 00:00:00.000                             : en:Chapter 01
  227. 00:07:43.880                             : en:Chapter 02
  228. 00:14:32.079                             : en:Chapter 03
  229. 00:19:52.900                             : en:Chapter 04
  230. 00:25:34.199                             : en:Chapter 05
  231. 00:33:04.107                             : en:Chapter 06
  232. 00:39:22.735                             : en:Chapter 07
  233. 00:47:26.760                             : en:Chapter 08
  234. 00:55:02.757                             : en:Chapter 09
  235. 01:06:57.555                             : en:Chapter 10
  236. 01:12:09.116                             : en:Chapter 11
  237. 01:20:37.582                             : en:Chapter 12
  238. 01:32:14.237                             : en:Chapter 13
  239. 01:37:09.657                             : en:Chapter 14
  240. 01:42:56.003                             : en:Chapter 15
  241. 01:49:35.026                             : en:Chapter 16
复制代码

我仍然相信/仍然相信 I.Still.Believe.2020.1080p.BluRay.REMUX.AVC.DTS-HD.MA.TrueHD.7.1.Atmos-FGT 36.02GB-2.png 我仍然相信/仍然相信 I.Still.Believe.2020.1080p.BluRay.REMUX.AVC.DTS-HD.MA.TrueHD.7.1.Atmos-FGT 36.02GB-3.png 我仍然相信/仍然相信 I.Still.Believe.2020.1080p.BluRay.REMUX.AVC.DTS-HD.MA.TrueHD.7.1.Atmos-FGT 36.02GB-4.png







回复

使用道具 举报

懒得打字嘛,点击右侧快捷回复 【右侧内容,后台自定义】
您需要登录后才可以回帖 登录 | 立即加入

本版积分规则

Archiver|小黑屋| 蓝光电影网 |网站地图

Copyright © 2021 Comsenz Inc. Powered by 蓝光电影网

蓝光电影网

本站内容由用户自主分享和转载自互联网,转载目的在于传递更多信息,并不代表本网赞同其观点和对其真实性负责。

如有侵权、违反国家法律政策行为,请联系我们,我们会第一时间及时清除和处理!

举报反馈邮箱:[email protected]otmail.com

快速回复 返回顶部 返回列表