找回密码

蓝光电影网

查看: 466|回复: 4

[惊悚] 阿肯色 Arkansas.2020.1080p.BluRay.REMUX.AVC.DTS-HD.MA.5.1-FGT 32.21GB

[复制链接]
蓝光币
519
发表于 2020-4-28 21:14:58 | 显示全部楼层 |阅读模式
阿肯色 Arkansas.2020.1080p.BluRay.REMUX.AVC.DTS-HD.MA.5.1-FGT 32.21GB-1.png

译  名 阿肯色 / ARK??NSAS
片  名 Arkansas
年  代 2020
产  地 美国
类  别 惊悚 / 犯罪
语  言 英语
上映日期 2020-05-01(美国)
IMDb链接  https://www.imdb.com/title/tt9139586
豆瓣评分 0/10 from 0 users
豆瓣链接 https://movie.douban.com/subject/30355043/
片  长 115分钟
导  演 克拉克·杜克 Clark Duke
编  剧 克拉克·杜克 Clark Duke
主  演 利亚姆·海姆斯沃斯 Liam Hemsworth
       文斯·沃恩 Vince Vaughn
       克拉克·杜克 Clark Duke
       雅各布·扎哈尔 Jacob Zachar
       约翰·马尔科维奇 John Malkovich
       迈克尔·肯尼斯·威廉姆斯 Michael Kenneth Williams
       薇薇卡·福克斯 Vivica A. Fox


标  签 犯罪 | 美国电影 | 约翰·马尔科维奇 | 文斯·沃恩 | 搞笑 | 惊悚 | 利亚姆·海姆斯沃斯

简  介  

  利亚姆·海姆斯沃斯、文斯·沃恩将主演克拉克·杜克导演童贞作[阿肯色]。本片报告迪克西黑手党中两名低级毒贩(海姆斯沃斯、杜克饰)本依照阿肯色州毒枭(沃恩饰)的号令生活,但一笔买卖出了可怕的过失,随之而来的是致命的结果。该片将于本周开拍。
  1. Video
  2. ID                                       : 1
  3. Format                                   : AVC
  4. Format/Info                              : Advanced Video Codec
  5. Format profile                           : [email protected]
  6. Format settings                          : CABAC / 4 Ref Frames
  7. Format settings, CABAC                   : Yes
  8. Format settings, Reference frames        : 4 frames
  9. Codec ID                                 : V_MPEG4/ISO/AVC
  10. Duration                                 : 1 h 56 min
  11. Bit rate mode                            : Variable
  12. Bit rate                                 : 35.4 Mb/s
  13. Maximum bit rate                         : 37.0 Mb/s
  14. Width                                    : 1 920 pixels
  15. Height                                   : 1 080 pixels
  16. Display aspect ratio                     : 16:9
  17. Frame rate mode                          : Constant
  18. Frame rate                               : 23.976 (24000/1001/189150) FPS
  19. Color space                              : YUV
  20. Chroma subsampling                       : 4:2:0
  21. Bit depth                                : 8 bits
  22. Scan type                                : Progressive
  23. Bits/(Pixel*Frame)                       : 0.712
  24. Stream size                              : 28.9 GiB (90%)
  25. Title                                    : Arkansas.2020.1080p.BluRay.REMUX.AVC.DTS-HD.MA.5.1-FGT
  26. Language                                 : English
  27. Default                                  : No
  28. Forced                                   : No

  29. Audio #1
  30. ID                                       : 2
  31. Format                                   : DTS XLL
  32. Format/Info                              : Digital Theater Systems
  33. Commercial name                          : DTS-HD Master Audio
  34. Codec ID                                 : A_DTS
  35. Duration                                 : 1 h 56 min
  36. Bit rate mode                            : Variable
  37. Bit rate                                 : 3 778 kb/s
  38. Channel(s)                               : 6 channels
  39. Channel layout                           : C L R Ls Rs LFE
  40. Sampling rate                            : 48.0 kHz
  41. Frame rate                               : 93.750 FPS (512 SPF)
  42. Bit depth                                : 24 bits
  43. Compression mode                         : Lossless
  44. Stream size                              : 3.09 GiB (10%)
  45. Title                                    : Arkansas.2020.1080p.BluRay.REMUX.AVC.DTS-HD.MA.5.1-FGT
  46. Language                                 : English
  47. Default                                  : Yes
  48. Forced                                   : No

  49. Audio #2
  50. ID                                       : 3
  51. Format                                   : AC-3
  52. Format/Info                              : Audio Coding 3
  53. Commercial name                          : Dolby Digital
  54. Codec ID                                 : A_AC3
  55. Duration                                 : 1 h 56 min
  56. Bit rate mode                            : Constant
  57. Bit rate                                 : 192 kb/s
  58. Channel(s)                               : 2 channels
  59. Channel layout                           : L R
  60. Sampling rate                            : 48.0 kHz
  61. Frame rate                               : 31.250 FPS (1536 SPF)
  62. Bit depth                                : 16 bits
  63. Compression mode                         : Lossy
  64. Stream size                              : 161 MiB (0%)
  65. Title                                    : Arkansas.2020.1080p.BluRay.REMUX.AVC.DTS-HD.MA.5.1-FGT
  66. Language                                 : English
  67. Service kind                             : Complete Main
  68. Default                                  : No
  69. Forced                                   : No

  70. Text #1
  71. ID                                       : 4
  72. Format                                   : UTF-8
  73. Codec ID                                 : S_TEXT/UTF8
  74. Codec ID/Info                            : UTF-8 Plain Text
  75. Duration                                 : 1 h 53 min
  76. Bit rate                                 : 64 b/s
  77. Count of elements                        : 1611
  78. Stream size                              : 53.5 KiB (0%)
  79. Title                                    : English-SRT
  80. Language                                 : English
  81. Default                                  : Yes
  82. Forced                                   : No

  83. Text #2
  84. ID                                       : 5
  85. Format                                   : UTF-8
  86. Codec ID                                 : S_TEXT/UTF8
  87. Codec ID/Info                            : UTF-8 Plain Text
  88. Duration                                 : 1 h 53 min
  89. Bit rate                                 : 70 b/s
  90. Count of elements                        : 1738
  91. Stream size                              : 58.5 KiB (0%)
  92. Title                                    : English-SDH-SRT
  93. Language                                 : English
  94. Default                                  : No
  95. Forced                                   : No

  96. Text #3
  97. ID                                       : 6
  98. Format                                   : PGS
  99. Muxing mode                              : zlib
  100. Codec ID                                 : S_HDMV/PGS
  101. Codec ID/Info                            : Picture based subtitle format used on BDs/HD-DVDs
  102. Duration                                 : 1 h 53 min
  103. Bit rate                                 : 43.6 kb/s
  104. Count of elements                        : 3482
  105. Stream size                              : 35.4 MiB (0%)
  106. Title                                    : English-PGS
  107. Language                                 : English
  108. Default                                  : No
  109. Forced                                   : No

  110. Text #4
  111. ID                                       : 7
  112. Format                                   : PGS
  113. Muxing mode                              : zlib
  114. Codec ID                                 : S_HDMV/PGS
  115. Codec ID/Info                            : Picture based subtitle format used on BDs/HD-DVDs
  116. Duration                                 : 1 h 55 min
  117. Bit rate                                 : 35.4 kb/s
  118. Count of elements                        : 3164
  119. Stream size                              : 29.3 MiB (0%)
  120. Title                                    : Spanish-PGS
  121. Language                                 : Spanish
  122. Default                                  : No
  123. Forced                                   : No

  124. Menu
  125. 00:00:00.000                             : en:Chapter 01
  126. 00:05:13.438                             : en:Chapter 02
  127. 00:12:29.373                             : en:Chapter 03
  128. 00:20:52.417                             : en:Chapter 04
  129. 00:31:15.623                             : en:Chapter 05
  130. 00:38:00.444                             : en:Chapter 06
  131. 00:43:10.421                             : en:Chapter 07
  132. 00:51:50.232                             : en:Chapter 08
  133. 00:54:53.623                             : en:Chapter 09
  134. 01:01:04.410                             : en:Chapter 10
  135. 01:05:21.459                             : en:Chapter 11
  136. 01:16:48.604                             : en:Chapter 12
  137. 01:25:30.416                             : en:Chapter 13
  138. 01:32:33.548                             : en:Chapter 14
  139. 01:40:58.343                             : en:Chapter 15
  140. 01:46:18.080                             : en:Chapter 16
复制代码

阿肯色 Arkansas.2020.1080p.BluRay.REMUX.AVC.DTS-HD.MA.5.1-FGT 32.21GB-2.png 阿肯色 Arkansas.2020.1080p.BluRay.REMUX.AVC.DTS-HD.MA.5.1-FGT 32.21GB-3.png 阿肯色 Arkansas.2020.1080p.BluRay.REMUX.AVC.DTS-HD.MA.5.1-FGT 32.21GB-4.png







回复

使用道具 举报

懒得打字嘛,点击右侧快捷回复 【右侧内容,后台自定义】
您需要登录后才可以回帖 登录 | 立即加入

本版积分规则

Archiver|小黑屋| 蓝光电影网 |网站地图

Copyright © 2021 Comsenz Inc. Powered by 蓝光电影网

蓝光电影网

本站内容由用户自主分享和转载自互联网,转载目的在于传递更多信息,并不代表本网赞同其观点和对其真实性负责。

如有侵权、违反国家法律政策行为,请联系我们,我们会第一时间及时清除和处理!

举报反馈邮箱:[email protected]

快速回复 返回顶部 返回列表