找回密码

蓝光电影网

查看: 1014|回复: 3

[剧情] 五亿探长雷洛传1:雷老虎 Lee.Rock.1991.CHINESE.1080p.BluRay.x264.DTS-FGT 11.64GB

[复制链接]
蓝光币
515
发表于 2020-4-28 23:37:44 | 显示全部楼层 |阅读模式
五亿探长雷洛传1:雷山君 Lee.Rock.1991.CHINESE.1080p.BluRay.x264.DTS-FGT 11.64GB-1.png

译  名 五亿探长雷洛传1:雷山君 / Lee Rock / 五亿探长雷洛传(雷山君) / 五亿探长雷洛传:雷山君 / 雷洛传I
片  名 五億探長雷洛傳:雷山君
年  代 1991
产  地 中国香港
类  别 剧情 / 行动 / 恋爱 / 犯罪
语  言 粤语
上映日期 1991-09-19(中国香港)
IMDb评分  7.1/10 from 626 users
IMDb链接  https://www.imdb.com/title/tt0103292
豆瓣评分 7.8/10 from 37870 users
豆瓣链接 https://movie.douban.com/subject/1297248/
片  长 127分钟
导  演 刘国昌 Lawrence Ah Mon
编  剧 陈文强 Man Keung Chan
主  演 刘德华 Andy Lau
       张敏 Sharla Cheung
       邱淑贞 Chingmy Yau
       吴孟达 Man Tat Ng
       陈惠敏 Wai-Man Chan
       秦沛 Paul Chun
       关海山 Hoi-Shan Kwan
       龙方 Fong Lung


标  签 刘德华 | 香港 | 香港电影 | 黑帮 | 邱淑贞 | 剧情 | 张敏 | 犯罪

简  介  

  本片用一个香港差人从理想青年酿成一代枭雄的进程,反应了香港五六十年月的社会题目。
  1949年,热血青年雷洛(刘德华 饰)成为差人。那时,香港差人报酬不高,差人向商户们收取庇护费的潜法则蔚然成风,雷洛不愿意和他们随波逐流,遭到同事们的排挤,也获咎了权倾一时的探长颜同(秦沛 饰),面临停职的危险,但是,探长陈统(关海山 饰)悄悄欣赏他,对他保护有加。
  雷洛和杂货店老板的女儿阿霞(邱淑贞 饰)两情相悦,可是阿霞的怙恃不愿意女儿随着他刻苦,各式阻止。雷洛借酒解愁,到黑社会的赌场闹事,被人殴打,多亏探长陈统搭救,并帮他筹到了五万元的聘礼。
  可是,1951年九龙东头村的大火,烧毁了雷洛的美梦。雷洛一家侥幸逃走,阿霞家人却葬身火海,阿霞本人也音信全无。
  转眼到了50年月末,雷洛履历了警队派系排挤,几经浮沉,渐渐顺应了香港警界,收庇护费的工作也做得驾轻就熟。他有幸娶到了“大捞家”白饭鱼的女儿,美丽泼辣白月娥(张敏 饰),靠着岳父的大力支持和自己在弹压1957年九龙暴乱中的出色表示,荣升探长。
  成为探长的雷诺标准了管区内收取庇护费的制度,削减了各界抵触,深得下级的重视。恰逢油尖区探长退休,雷洛和颜同都成为了这个职位的有力合作者,二人各自展开了行动,一时如火如荼,此时,雷洛意外碰见了一小我,让他震动不已……

获奖情况  

  第28届台北金马影展(1991)
  金马奖 最好男配角 关海山

  第11届香港电影金像奖(1992)
  最好电影(提名)
  最好导演(提名) 刘国昌
  最好编剧(提名) 陈文强
  最好男配角(提名) 刘德华
  最好男配角 关海山
  最好女配角(提名) 邱淑贞
  最好摄影(提名) 李子衡 / 刘伟强
  最好美术指导(提名) 莫少奇
  1. Video
  2. ID                                       : 1
  3. Format                                   : AVC
  4. Format/Info                              : Advanced Video Codec
  5. Format profile                           : [email protected]
  6. Format settings                          : CABAC / 4 Ref Frames
  7. Format settings, CABAC                   : Yes
  8. Format settings, Reference frames        : 4 frames
  9. Codec ID                                 : V_MPEG4/ISO/AVC
  10. Duration                                 : 2 h 8 min
  11. Bit rate                                 : 11.5 Mb/s
  12. Width                                    : 1 920 pixels
  13. Height                                   : 1 080 pixels
  14. Display aspect ratio                     : 16:9
  15. Frame rate mode                          : Constant
  16. Frame rate                               : 23.976 (24000/1001/189150) FPS
  17. Color space                              : YUV
  18. Chroma subsampling                       : 4:2:0
  19. Bit depth                                : 8 bits
  20. Scan type                                : Progressive
  21. Bits/(Pixel*Frame)                       : 0.231
  22. Stream size                              : 10.3 GiB (88%)
  23. Title                                    : Lee.Rock.1991.CHINESE.1080p.BluRay.x264.DTS-FGT
  24. Writing library                          : x264 core 148 r2748 97eaef2
  25. Encoding settings                        : cabac=1 / ref=4 / deblock=1:-2:-2 / analyse=0x3:0x113 / me=umh / subme=9 / psy=1 / psy_rd=1.00:0.15 / mixed_ref=1 / me_range=16 / chroma_me=1 / trellis=2 / 8x8dct=1 / cqm=0 / deadzone=21,11 / fast_pskip=1 / chroma_qp_offset=-3 / threads=24 / lookahead_threads=3 / sliced_threads=0 / nr=0 / decimate=1 / interlaced=0 / bluray_compat=0 / constrained_intra=0 / bframes=3 / b_pyramid=2 / b_adapt=1 / b_bias=0 / direct=3 / weightb=1 / open_gop=0 / weightp=2 / keyint=250 / keyint_min=25 / scenecut=40 / intra_refresh=0 / rc_lookahead=50 / rc=2pass / mbtree=1 / bitrate=11500 / ratetol=1.0 / qcomp=0.60 / qpmin=0 / qpmax=69 / qpstep=4 / cplxblur=20.0 / qblur=0.5 / vbv_maxrate=31250 / vbv_bufsize=31250 / nal_hrd=none / filler=0 / ip_ratio=1.40 / aq=1:1.00
  26. Language                                 : Chinese
  27. Default                                  : Yes
  28. Forced                                   : No

  29. Audio
  30. ID                                       : 2
  31. Format                                   : DTS
  32. Format/Info                              : Digital Theater Systems
  33. Codec ID                                 : A_DTS
  34. Duration                                 : 2 h 8 min
  35. Bit rate mode                            : Constant
  36. Bit rate                                 : 1 509 kb/s
  37. Channel(s)                               : 6 channels
  38. Channel layout                           : C L R Ls Rs LFE
  39. Sampling rate                            : 48.0 kHz
  40. Frame rate                               : 93.750 FPS (512 SPF)
  41. Bit depth                                : 16 bits
  42. Compression mode                         : Lossy
  43. Stream size                              : 1.35 GiB (12%)
  44. Title                                    : Lee.Rock.1991.CHINESE.1080p.BluRay.x264.DTS-FGT
  45. Language                                 : Chinese
  46. Default                                  : Yes
  47. Forced                                   : No

  48. Text
  49. ID                                       : 3
  50. Format                                   : UTF-8
  51. Codec ID                                 : S_TEXT/UTF8
  52. Codec ID/Info                            : UTF-8 Plain Text
  53. Duration                                 : 2 h 5 min
  54. Bit rate                                 : 62 b/s
  55. Count of elements                        : 1837
  56. Stream size                              : 57.3 KiB (0%)
  57. Language                                 : English
  58. Default                                  : Yes
  59. Forced                                   : No

  60. Menu
  61. 00:00:00.000                             : en:??? 01 ???
  62. 00:10:46.395                             : en:??? 02 ???
  63. 00:22:22.549                             : en:??? 03 ???
  64. 00:31:35.393                             : en:??? 04 ???
  65. 00:42:27.503                             : en:??? 05 ???
  66. 00:51:12.444                             : en:??? 06 ???
  67. 01:02:22.113                             : en:??? 07 ???
  68. 01:13:21.855                             : en:??? 08 ???
  69. 01:25:25.787                             : en:??? 09 ???
  70. 01:37:43.357                             : en:??? 10 ???
  71. 01:45:10.262                             : en:??? 11 ???
  72. 01:59:40.923                             : en:??? 12 ???
复制代码

五亿探长雷洛传1:雷山君 Lee.Rock.1991.CHINESE.1080p.BluRay.x264.DTS-FGT 11.64GB-2.png 五亿探长雷洛传1:雷山君 Lee.Rock.1991.CHINESE.1080p.BluRay.x264.DTS-FGT 11.64GB-3.png 五亿探长雷洛传1:雷山君 Lee.Rock.1991.CHINESE.1080p.BluRay.x264.DTS-FGT 11.64GB-4.png







回复

使用道具 举报

蓝光币
641
发表于 2020-4-29 09:18:43 | 显示全部楼层
谢谢楼主无私分享。
回复 支持 反对

使用道具 举报

蓝光币
70
发表于 2020-5-9 23:03:02 | 显示全部楼层
唉,怎么感觉头回听说这个片子有这个标准的呢
回复 支持 反对

使用道具 举报

蓝光币
70
发表于 2020-5-13 12:50:14 | 显示全部楼层

这个帖子不回对不起自己!我想我是一天也不能离开蓝光电影网
回复 支持 反对

使用道具 举报

懒得打字嘛,点击右侧快捷回复 【右侧内容,后台自定义】
您需要登录后才可以回帖 登录 | 立即加入

本版积分规则

Archiver|小黑屋| 蓝光电影网 |网站地图

Copyright © 2021 Comsenz Inc. Powered by 蓝光电影网

蓝光电影网

本站内容由用户自主分享和转载自互联网,转载目的在于传递更多信息,并不代表本网赞同其观点和对其真实性负责。

如有侵权、违反国家法律政策行为,请联系我们,我们会第一时间及时清除和处理!

举报反馈邮箱:[email protected]

快速回复 返回顶部 返回列表