找回密码

蓝光电影网

查看: 497|回复: 2

[剧情] 花 Flowers.2010.JAPANESE.1080p.BluRay.x264.DTS-FGT 9.93GB

[复制链接]
蓝光币
515
发表于 2020-4-28 23:40:38 | 显示全部楼层 |阅读模式
p617428557.jpg

译  名 花 / Flowers / 恋恋·凡花(港)
片  名 フラワーズ
年  代 2010
产  地 日本
类  别 剧情 / 家庭
语  言 日语
上映日期 2010-06-12(日本)
IMDb评分  6.7/10 from 273 users
IMDb链接  https://www.imdb.com/title/tt1637681
豆瓣评分 7.6/10 from 9196 users
豆瓣链接 https://movie.douban.com/subject/4241887/
片  长 110分钟
导  演 小泉德宏
编  剧 藤本周 / 三浦有为子 Uiko Miura
主  演 苍井优 Yu Aoi
       铃木京香 Kyoka Suzuki
       竹内结实 Y?ko Takeuchi
       田中丽奈 Rena Tanaka
       仲间由纪惠 Yukie Nakama
       广末凉子 Ryoko Hirosue
       大泽隆夫 Takao ?sawa
       长门裕之 Hiroyuki Nagato
       盐见三省 Sansei Shiomi
       平田满 Mitsuru Hirata
       井之原快彦 Yoshihiko Inohara
       三浦贵大
       真野响子 Ky?ko Maya
       骏河太郎
       河本准一 Jun'ichi K?moto


标  签 苍井优 | 日本电影 | 日本 | 广末凉子 | 竹内结实 | 仲間由紀惠 | 蒼井優 | 日影

简  介  

  昭和初年,崇尚自在的少女凛(蒼井優 饰)不愿反复母亲那为夫命是从的人生,在婚礼当天穿着号衣跑落发去;昭和中叶,凛的三个女儿各自履历分歧的人生,长女薰(竹内結子 饰)与爱人履历生离死别,对亡夫久久没法忘记。次女翠(田中麗奈 饰)是一家期刊的编辑,她一心做一位出色的铁娘子。小女慧(仲間由紀恵 饰)具有幸运的大家庭,在第二个生命行将到来之际,她的生命却遭到死神的威胁;21世纪之初,慧的两个女儿也品味着人生的各种:幼女佳(広末涼子 饰)具有幸运的三口之家,乐在其中。长女奏(鈴木京香 饰)远赴东京追随胡想,却不能不面临残暴冰冷的现实。三代女人,分歧的人生,有如花开花落,循环往复……
  本片由著名化装品牌资生堂援助拍摄。
  1. Video
  2. ID                                       : 1
  3. Format                                   : AVC
  4. Format/Info                              : Advanced Video Codec
  5. Format profile                           : [email protected]
  6. Format settings                          : CABAC / 4 Ref Frames
  7. Format settings, CABAC                   : Yes
  8. Format settings, Reference frames        : 4 frames
  9. Codec ID                                 : V_MPEG4/ISO/AVC
  10. Duration                                 : 1 h 49 min
  11. Bit rate                                 : 11.5 Mb/s
  12. Width                                    : 1 914 pixels
  13. Height                                   : 1 036 pixels
  14. Display aspect ratio                     : 1.85:1
  15. Frame rate mode                          : Constant
  16. Frame rate                               : 23.976 (24000/1001/189150) FPS
  17. Color space                              : YUV
  18. Chroma subsampling                       : 4:2:0
  19. Bit depth                                : 8 bits
  20. Scan type                                : Progressive
  21. Bits/(Pixel*Frame)                       : 0.242
  22. Stream size                              : 8.77 GiB (88%)
  23. Title                                    : Flowers.2010.JAPANESE.1080p.BluRay.x264.DTS-FGT
  24. Writing library                          : x264 core 148 r2748 97eaef2
  25. Encoding settings                        : cabac=1 / ref=4 / deblock=1:-2:-2 / analyse=0x3:0x113 / me=umh / subme=9 / psy=1 / psy_rd=1.00:0.15 / mixed_ref=1 / me_range=16 / chroma_me=1 / trellis=2 / 8x8dct=1 / cqm=0 / deadzone=21,11 / fast_pskip=1 / chroma_qp_offset=-3 / threads=24 / lookahead_threads=3 / sliced_threads=0 / nr=0 / decimate=1 / interlaced=0 / bluray_compat=0 / constrained_intra=0 / bframes=3 / b_pyramid=2 / b_adapt=1 / b_bias=0 / direct=3 / weightb=1 / open_gop=0 / weightp=2 / keyint=250 / keyint_min=25 / scenecut=40 / intra_refresh=0 / rc_lookahead=50 / rc=2pass / mbtree=1 / bitrate=11500 / ratetol=1.0 / qcomp=0.60 / qpmin=0 / qpmax=69 / qpstep=4 / cplxblur=20.0 / qblur=0.5 / vbv_maxrate=31250 / vbv_bufsize=31250 / nal_hrd=none / filler=0 / ip_ratio=1.40 / aq=1:1.00
  26. Language                                 : Japanese
  27. Default                                  : Yes
  28. Forced                                   : No

  29. Audio
  30. ID                                       : 2
  31. Format                                   : DTS
  32. Format/Info                              : Digital Theater Systems
  33. Codec ID                                 : A_DTS
  34. Duration                                 : 1 h 49 min
  35. Bit rate mode                            : Constant
  36. Bit rate                                 : 1 509 kb/s
  37. Channel(s)                               : 6 channels
  38. Channel layout                           : C L R Ls Rs LFE
  39. Sampling rate                            : 48.0 kHz
  40. Frame rate                               : 93.750 FPS (512 SPF)
  41. Bit depth                                : 16 bits
  42. Compression mode                         : Lossy
  43. Stream size                              : 1.15 GiB (12%)
  44. Title                                    : Flowers.2010.JAPANESE.1080p.BluRay.x264.DTS-FGT
  45. Language                                 : Japanese
  46. Default                                  : Yes
  47. Forced                                   : No

  48. Text
  49. ID                                       : 3
  50. Format                                   : UTF-8
  51. Codec ID                                 : S_TEXT/UTF8
  52. Codec ID/Info                            : UTF-8 Plain Text
  53. Duration                                 : 1 h 45 min
  54. Bit rate                                 : 18 b/s
  55. Count of elements                        : 607
  56. Stream size                              : 13.9 KiB (0%)
  57. Language                                 : English
  58. Default                                  : Yes
  59. Forced                                   : No

  60. Menu
  61. 00:00:00.000                             : en:??? 01 ???
  62. 00:03:38.259                             : en:??? 02 ???
  63. 00:08:00.271                             : en:??? 03 ???
  64. 00:11:43.744                             : en:??? 04 ???
  65. 00:14:28.409                             : en:??? 05 ???
  66. 00:18:40.869                             : en:??? 06 ???
  67. 00:22:15.042                             : en:??? 07 ???
  68. 00:29:40.278                             : en:??? 08 ???
  69. 00:37:51.435                             : en:??? 09 ???
  70. 00:41:02.877                             : en:??? 10 ???
  71. 00:50:55.594                             : en:??? 11 ???
  72. 00:55:26.614                             : en:??? 12 ???
  73. 00:59:07.043                             : en:??? 13 ???
  74. 01:02:29.829                             : en:??? 14 ???
  75. 01:06:30.569                             : en:??? 15 ???
  76. 01:13:03.629                             : en:??? 16 ???
  77. 01:20:09.805                             : en:??? 17 ???
  78. 01:29:38.247                             : en:??? 18 ???
  79. 01:34:31.332                             : en:??? 19 ???
  80. 01:37:42.439                             : en:??? 20 ???
  81. 01:40:20.014                             : en:??? 21 ???
  82. 01:44:17.251                             : en:??? 22 ???
复制代码

花 Flowers.2010.JAPANESE.1080p.BluRay.x264.DTS-FGT 9.93GB-1.png 花 Flowers.2010.JAPANESE.1080p.BluRay.x264.DTS-FGT 9.93GB-2.png 花 Flowers.2010.JAPANESE.1080p.BluRay.x264.DTS-FGT 9.93GB-3.png







回复

使用道具 举报

懒得打字嘛,点击右侧快捷回复 【右侧内容,后台自定义】
您需要登录后才可以回帖 登录 | 立即加入

本版积分规则

Archiver|小黑屋| 蓝光电影网 |网站地图

Copyright © 2021 Comsenz Inc. Powered by 蓝光电影网

蓝光电影网

本站内容由用户自主分享和转载自互联网,转载目的在于传递更多信息,并不代表本网赞同其观点和对其真实性负责。

如有侵权、违反国家法律政策行为,请联系我们,我们会第一时间及时清除和处理!

举报反馈邮箱:[email protected]

快速回复 返回顶部 返回列表