找回密码

蓝光电影网

查看: 639|回复: 3

[爱情] 1448爱在你我之间 1448.Love.Among.Us.2014.THAI.1080p.BluRay.x264.DTS-FGT 8.44GB

[复制链接]
蓝光币
515
发表于 2020-4-28 23:42:09 | 显示全部楼层 |阅读模式
p2208076677.jpg

译  名 1448爱在你我之间 / 1448 Love Among Us
片  名 1448 ????????????
年  代 2014
产  地 泰国
类  别 恋爱 / 同性
语  言 泰语
上映日期 2014-11-27
IMDb评分  5.1/10 from 141 users
IMDb链接  https://www.imdb.com/title/tt3950002
豆瓣评分 5.5/10 from 517 users
豆瓣链接 https://movie.douban.com/subject/26205225/
导  演 Arunsak Ongla-or
编  剧 Worawisuth Chalacheebh / Arunsak Ongla-or / Juldit Singoun
主  演 阿萍雅·萨库尔·加伦苏 Apinya Sakuljaroensuk
       Isabella Lete
       Pudit Kunchanasongkarm


标  签 同性 | 泰国 | les | 百合 | 电影 | 恋爱 | 泰国电影 | Lesbian

简  介  

  一场意外的相逢中,帕特深深的爱上了皮姆,在黉舍的一场会议中,两人重逢,而且起头熟络起来。虽然帕特对于皮姆的豪情真挚而又炙热,但她还是挑选将这份至心深深的埋藏在心底,由于皮姆此时已经有了一个英俊帅气的男友。但是,皮姆自己也晓得,她和男友之间的爱情并不会有什么成果,终极,皮姆挑选了和男友分手。
  让皮姆没有想到的是,帕特的身影经常出现在自己的脑海当中,她大白了自己对于帕特的友谊,两情相悦的两人终究走到了一路。但是,当她们决议成婚之时,这段爱情却遭到了帕特家人的激烈否决。面临世俗的偏见,帕特和皮姆的真爱能否开花成果呢?
  1. Video
  2. ID                                       : 1
  3. Format                                   : AVC
  4. Format/Info                              : Advanced Video Codec
  5. Format profile                           : [email protected]
  6. Format settings                          : CABAC / 4 Ref Frames
  7. Format settings, CABAC                   : Yes
  8. Format settings, Reference frames        : 4 frames
  9. Codec ID                                 : V_MPEG4/ISO/AVC
  10. Duration                                 : 1 h 32 min
  11. Bit rate                                 : 11.5 Mb/s
  12. Width                                    : 1 920 pixels
  13. Height                                   : 1 080 pixels
  14. Display aspect ratio                     : 16:9
  15. Frame rate mode                          : Constant
  16. Frame rate                               : 25.000 FPS
  17. Color space                              : YUV
  18. Chroma subsampling                       : 4:2:0
  19. Bit depth                                : 8 bits
  20. Scan type                                : Progressive
  21. Bits/(Pixel*Frame)                       : 0.222
  22. Stream size                              : 7.46 GiB (88%)
  23. Title                                    : 1448.Love.Among.Us.2014.THAI.1080p.BluRay.x264.DTS-FGT
  24. Writing library                          : x264 core 148 r2748 97eaef2
  25. Encoding settings                        : cabac=1 / ref=4 / deblock=1:-2:-2 / analyse=0x3:0x113 / me=umh / subme=9 / psy=1 / psy_rd=1.00:0.15 / mixed_ref=1 / me_range=16 / chroma_me=1 / trellis=2 / 8x8dct=1 / cqm=0 / deadzone=21,11 / fast_pskip=1 / chroma_qp_offset=-3 / threads=24 / lookahead_threads=3 / sliced_threads=0 / nr=0 / decimate=1 / interlaced=0 / bluray_compat=0 / constrained_intra=0 / bframes=3 / b_pyramid=2 / b_adapt=1 / b_bias=0 / direct=3 / weightb=1 / open_gop=0 / weightp=2 / keyint=250 / keyint_min=25 / scenecut=40 / intra_refresh=0 / rc_lookahead=50 / rc=2pass / mbtree=1 / bitrate=11500 / ratetol=1.0 / qcomp=0.60 / qpmin=0 / qpmax=69 / qpstep=4 / cplxblur=20.0 / qblur=0.5 / vbv_maxrate=31250 / vbv_bufsize=31250 / nal_hrd=none / filler=0 / ip_ratio=1.40 / aq=1:1.00
  26. Language                                 : Thai
  27. Default                                  : Yes
  28. Forced                                   : No

  29. Audio
  30. ID                                       : 2
  31. Format                                   : DTS
  32. Format/Info                              : Digital Theater Systems
  33. Codec ID                                 : A_DTS
  34. Duration                                 : 1 h 32 min
  35. Bit rate mode                            : Constant
  36. Bit rate                                 : 1 509 kb/s
  37. Channel(s)                               : 6 channels
  38. Channel layout                           : C L R Ls Rs LFE
  39. Sampling rate                            : 48.0 kHz
  40. Frame rate                               : 93.750 FPS (512 SPF)
  41. Bit depth                                : 24 bits
  42. Compression mode                         : Lossy
  43. Stream size                              : 1 003 MiB (12%)
  44. Title                                    : 1448.Love.Among.Us.2014.THAI.1080p.BluRay.x264.DTS-FGT
  45. Language                                 : Thai
  46. Default                                  : Yes
  47. Forced                                   : No

  48. Text
  49. ID                                       : 3
  50. Format                                   : UTF-8
  51. Codec ID                                 : S_TEXT/UTF8
  52. Codec ID/Info                            : UTF-8 Plain Text
  53. Duration                                 : 1 h 26 min
  54. Bit rate                                 : 37 b/s
  55. Count of elements                        : 800
  56. Stream size                              : 24.1 KiB (0%)
  57. Language                                 : English
  58. Default                                  : Yes
  59. Forced                                   : No

  60. Menu
  61. 00:00:00.000                             : en:Chapter 01
  62. 00:05:57.680                             : en:Chapter 02
  63. 00:09:27.920                             : en:Chapter 03
  64. 00:13:09.000                             : en:Chapter 04
  65. 00:17:11.360                             : en:Chapter 05
  66. 00:21:06.800                             : en:Chapter 06
  67. 00:26:17.240                             : en:Chapter 07
  68. 00:33:04.440                             : en:Chapter 08
  69. 00:40:04.600                             : en:Chapter 09
  70. 00:44:15.120                             : en:Chapter 10
  71. 00:49:22.880                             : en:Chapter 11
  72. 00:56:13.880                             : en:Chapter 12
  73. 01:02:49.920                             : en:Chapter 13
  74. 01:10:15.560                             : en:Chapter 14
  75. 01:17:24.440                             : en:Chapter 15
  76. 01:23:01.280                             : en:Chapter 16
复制代码

1448爱在你我之间 1448.Love.Among.Us.2014.THAI.1080p.BluRay.x264.DTS-FGT 8.44GB-1.png 1448爱在你我之间 1448.Love.Among.Us.2014.THAI.1080p.BluRay.x264.DTS-FGT 8.44GB-2.png 1448爱在你我之间 1448.Love.Among.Us.2014.THAI.1080p.BluRay.x264.DTS-FGT 8.44GB-3.png







回复

使用道具 举报

蓝光币
61
发表于 2020-8-22 10:05:00 | 显示全部楼层
感谢楼主分享 开花结果估计是不可能了
回复 支持 反对

使用道具 举报

懒得打字嘛,点击右侧快捷回复 【右侧内容,后台自定义】
您需要登录后才可以回帖 登录 | 立即加入

本版积分规则

Archiver|小黑屋| 蓝光电影网 |网站地图

Copyright © 2021 Comsenz Inc. Powered by 蓝光电影网

蓝光电影网

本站内容由用户自主分享和转载自互联网,转载目的在于传递更多信息,并不代表本网赞同其观点和对其真实性负责。

如有侵权、违反国家法律政策行为,请联系我们,我们会第一时间及时清除和处理!

举报反馈邮箱:[email protected]

快速回复 返回顶部 返回列表