找回密码

蓝光电影网

查看: 828|回复: 6

[剧情] 末日村庄 Village.Of.Doom.1983.JAPANESE.1080p.BluRay.x264.DTS-FGT 9.61GB

[复制链接]
蓝光币
519
发表于 2020-4-28 23:42:51 | 显示全部楼层 |阅读模式
末日村落 Village.Of.Doom.1983.JAPANESE.1080p.BluRay.x264.DTS-FGT 9.61GB-1.png

译  名 末日村落 / Village of Doom / 丑三之村
片  名 丑三つの村
年  代 1983
产  地 日本
类  别 剧情 / 犯罪
语  言 日语
上映日期 1983-01-15(日本)
IMDb评分  5.0/10 from 83 users
IMDb链接  https://www.imdb.com/title/tt0229820
豆瓣评分 6.4/10 from 260 users
豆瓣链接 https://movie.douban.com/subject/3328210/
片  长 106分钟
导  演 田中登 Noboru Tanaka
编  剧 西冈琢也 Takuya Nishioka
主  演 古尾谷雅人 Masato Furuoya
       池波志乃 Shino Ikenami
       夏八木勋 Isao Natsuyagi


标  签 日本 | 日本电影 | 情色 | 犯罪 | 情色片 | 田中登 | 变态 | 爱的色放

简  介  

  由松竹映像、富士映画结合出品,故事真相是1938年发生的“冈山事务”,那时冈山县津山市的苫田郡西加茂村22岁的青年都井睦雄,以炸药枪、军人刀不到两个小时的时候内杀死三十人,最初潜逃深山开枪自杀人。缔造了在极短时候内大量杀人,日本甚至全天下的犯罪记录。
  1. Video
  2. ID                                       : 1
  3. Format                                   : AVC
  4. Format/Info                              : Advanced Video Codec
  5. Format profile                           : [email protected]
  6. Format settings                          : CABAC / 4 Ref Frames
  7. Format settings, CABAC                   : Yes
  8. Format settings, Reference frames        : 4 frames
  9. Codec ID                                 : V_MPEG4/ISO/AVC
  10. Duration                                 : 1 h 45 min
  11. Bit rate                                 : 11.5 Mb/s
  12. Width                                    : 1 920 pixels
  13. Height                                   : 1 036 pixels
  14. Display aspect ratio                     : 1.85:1
  15. Frame rate mode                          : Constant
  16. Frame rate                               : 23.976 (24000/1001/189150) FPS
  17. Color space                              : YUV
  18. Chroma subsampling                       : 4:2:0
  19. Bit depth                                : 8 bits
  20. Scan type                                : Progressive
  21. Bits/(Pixel*Frame)                       : 0.241
  22. Stream size                              : 8.49 GiB (88%)
  23. Title                                    : Village.Of.Doom.1983.JAPANESE.1080p.BluRay.x264.DTS-FGT
  24. Writing library                          : x264 core 148 r2748 97eaef2
  25. Encoding settings                        : cabac=1 / ref=4 / deblock=1:-2:-2 / analyse=0x3:0x113 / me=umh / subme=9 / psy=1 / psy_rd=1.00:0.15 / mixed_ref=1 / me_range=16 / chroma_me=1 / trellis=2 / 8x8dct=1 / cqm=0 / deadzone=21,11 / fast_pskip=1 / chroma_qp_offset=-3 / threads=24 / lookahead_threads=3 / sliced_threads=0 / nr=0 / decimate=1 / interlaced=0 / bluray_compat=0 / constrained_intra=0 / bframes=3 / b_pyramid=2 / b_adapt=1 / b_bias=0 / direct=3 / weightb=1 / open_gop=0 / weightp=2 / keyint=250 / keyint_min=25 / scenecut=40 / intra_refresh=0 / rc_lookahead=50 / rc=2pass / mbtree=1 / bitrate=11500 / ratetol=1.0 / qcomp=0.60 / qpmin=0 / qpmax=69 / qpstep=4 / cplxblur=20.0 / qblur=0.5 / vbv_maxrate=31250 / vbv_bufsize=31250 / nal_hrd=none / filler=0 / ip_ratio=1.40 / aq=1:1.00
  26. Language                                 : Japanese
  27. Default                                  : Yes
  28. Forced                                   : No

  29. Audio
  30. ID                                       : 2
  31. Format                                   : DTS
  32. Format/Info                              : Digital Theater Systems
  33. Codec ID                                 : A_DTS
  34. Duration                                 : 1 h 45 min
  35. Bit rate mode                            : Constant
  36. Bit rate                                 : 1 509 kb/s
  37. Channel(s)                               : 2 channels
  38. Channel layout                           : L R
  39. Sampling rate                            : 48.0 kHz
  40. Frame rate                               : 93.750 FPS (512 SPF)
  41. Bit depth                                : 16 bits
  42. Compression mode                         : Lossy
  43. Stream size                              : 1.11 GiB (12%)
  44. Title                                    : Village.Of.Doom.1983.JAPANESE.1080p.BluRay.x264.DTS-FGT
  45. Language                                 : Japanese
  46. Default                                  : Yes
  47. Forced                                   : No

  48. Text
  49. ID                                       : 3
  50. Format                                   : UTF-8
  51. Codec ID                                 : S_TEXT/UTF8
  52. Codec ID/Info                            : UTF-8 Plain Text
  53. Duration                                 : 1 h 45 min
  54. Bit rate                                 : 22 b/s
  55. Count of elements                        : 807
  56. Stream size                              : 17.4 KiB (0%)
  57. Language                                 : English
  58. Default                                  : Yes
  59. Forced                                   : No

  60. Menu
  61. 00:00:00.000                             : en:Chapter 01
  62. 00:12:37.173                             : en:Chapter 02
  63. 00:25:12.177                             : en:Chapter 03
  64. 00:36:57.048                             : en:Chapter 04
  65. 00:44:00.012                             : en:Chapter 05
  66. 00:54:46.241                             : en:Chapter 06
  67. 01:08:40.741                             : en:Chapter 07
  68. 01:16:39.678                             : en:Chapter 08
  69. 01:29:06.841                             : en:Chapter 09
  70. 01:38:34.783                             : en:Chapter 10
  71. 01:45:41.585                             : en:Chapter 11
复制代码

末日村落 Village.Of.Doom.1983.JAPANESE.1080p.BluRay.x264.DTS-FGT 9.61GB-2.png 末日村落 Village.Of.Doom.1983.JAPANESE.1080p.BluRay.x264.DTS-FGT 9.61GB-3.png 末日村落 Village.Of.Doom.1983.JAPANESE.1080p.BluRay.x264.DTS-FGT 9.61GB-4.png






回复

使用道具 举报

懒得打字嘛,点击右侧快捷回复 【右侧内容,后台自定义】
您需要登录后才可以回帖 登录 | 立即加入

本版积分规则

Archiver|小黑屋| 蓝光电影网 |网站地图

Copyright © 2021 Comsenz Inc. Powered by 蓝光电影网

蓝光电影网

本站内容由用户自主分享和转载自互联网,转载目的在于传递更多信息,并不代表本网赞同其观点和对其真实性负责。

如有侵权、违反国家法律政策行为,请联系我们,我们会第一时间及时清除和处理!

举报反馈邮箱:[email protected]

快速回复 返回顶部 返回列表