找回密码

蓝光电影网

查看: 1263|回复: 2

[喜剧] 情圣 The.Magnificent.Scoundrels.1991.CHINESE.1080p.BluRay.x264.DTS-FGT 8.85GB

[复制链接]
蓝光币
511
发表于 2020-4-28 23:50:41 | 显示全部楼层 |阅读模式
情圣 The.Magnificent.Scoundrels.1991.CHINESE.1080p.BluRay.x264.DTS-FGT 8.85GB-1.png

译  名 情圣 / The Magnificent Scoundrels / 笑情偿债(台)
片  名 情聖
年  代 1991
产  地 中国香港
类  别 笑剧
语  言 粤语
上映日期 1991-10-10(中国香港)
IMDb评分  6.6/10 from 785 users
IMDb链接  https://www.imdb.com/title/tt0102737
豆瓣评分 7.4/10 from 62285 users
豆瓣链接 https://movie.douban.com/subject/1307747/
片  长 97分钟
导  演 李力持 Lik-Chi Lee
编  剧 李力持 Lik-Chi Lee / 梁耀明 Yiu-ming Leung
主  演 周星驰 Stephen Chow
       毛舜筠 Teresa Mo
       恬妞 Niu Tien
       叶子楣 Amy Yip
       午马 Wu Ma
       张耀扬 Roy Cheung
       元华 Wah Yuen
       朱咪咪 Mimi Chu
       麦嘉 Karl Maka
       吴君如 Sandra Ng


标  签 周星驰 | 笑剧 | 香港 | 香港电影 | 搞笑 | 1991 | 李力持 | 电影

简  介  

  程胜(周星驰 饰)乃一游手好闲之徒,整天坑蒙拐骗,无恶不作。一日装瞎子行骗,遇遇女骗子(毛舜筠 饰)被追债的贵利工打手排骨(元华 饰)欺侮,胜一时看不外眼脱手相救,不意却被债权转嫁弄了自己一屁股债。另一方面。老江湖凌万蜂(午马 饰)一样欠下了贵利王(张耀扬饰)的债权,有力还清。他想法子找到自己的旧情人生萍姐(恬妞 饰)和妓女Apple(叶子楣 饰)同谋冒充一富户人家向一阔少欺骗。不意上当的阔少正是胜所扮,他也想骗这一富户。鬼使神差的圈套,笑料百出……
  1. Video
  2. ID                                       : 1
  3. Format                                   : AVC
  4. Format/Info                              : Advanced Video Codec
  5. Format profile                           : [email protected]
  6. Format settings                          : CABAC / 4 Ref Frames
  7. Format settings, CABAC                   : Yes
  8. Format settings, Reference frames        : 4 frames
  9. Codec ID                                 : V_MPEG4/ISO/AVC
  10. Duration                                 : 1 h 37 min
  11. Bit rate                                 : 11.5 Mb/s
  12. Width                                    : 1 920 pixels
  13. Height                                   : 1 080 pixels
  14. Display aspect ratio                     : 16:9
  15. Frame rate mode                          : Constant
  16. Frame rate                               : 24.000 FPS
  17. Color space                              : YUV
  18. Chroma subsampling                       : 4:2:0
  19. Bit depth                                : 8 bits
  20. Scan type                                : Progressive
  21. Bits/(Pixel*Frame)                       : 0.231
  22. Stream size                              : 7.82 GiB (88%)
  23. Title                                    : The.Magnificent.Scoundrels.1991.CHINESE.1080p.BluRay.x264.DTS-FGT
  24. Writing library                          : x264 core 148 r2748 97eaef2
  25. Encoding settings                        : cabac=1 / ref=4 / deblock=1:-2:-2 / analyse=0x3:0x113 / me=umh / subme=9 / psy=1 / psy_rd=1.00:0.15 / mixed_ref=1 / me_range=16 / chroma_me=1 / trellis=2 / 8x8dct=1 / cqm=0 / deadzone=21,11 / fast_pskip=1 / chroma_qp_offset=-3 / threads=24 / lookahead_threads=3 / sliced_threads=0 / nr=0 / decimate=1 / interlaced=0 / bluray_compat=0 / constrained_intra=0 / bframes=3 / b_pyramid=2 / b_adapt=1 / b_bias=0 / direct=3 / weightb=1 / open_gop=0 / weightp=2 / keyint=250 / keyint_min=25 / scenecut=40 / intra_refresh=0 / rc_lookahead=50 / rc=2pass / mbtree=1 / bitrate=11500 / ratetol=1.0 / qcomp=0.60 / qpmin=0 / qpmax=69 / qpstep=4 / cplxblur=20.0 / qblur=0.5 / vbv_maxrate=31250 / vbv_bufsize=31250 / nal_hrd=none / filler=0 / ip_ratio=1.40 / aq=1:1.00
  26. Language                                 : Chinese
  27. Default                                  : Yes
  28. Forced                                   : No

  29. Audio
  30. ID                                       : 2
  31. Format                                   : DTS
  32. Format/Info                              : Digital Theater Systems
  33. Codec ID                                 : A_DTS
  34. Duration                                 : 1 h 37 min
  35. Bit rate mode                            : Constant
  36. Bit rate                                 : 1 509 kb/s
  37. Channel(s)                               : 2 channels
  38. Channel layout                           : L R
  39. Sampling rate                            : 48.0 kHz
  40. Frame rate                               : 93.750 FPS (512 SPF)
  41. Bit depth                                : 16 bits
  42. Compression mode                         : Lossy
  43. Stream size                              : 1.03 GiB (12%)
  44. Title                                    : The.Magnificent.Scoundrels.1991.CHINESE.1080p.BluRay.x264.DTS-FGT
  45. Language                                 : Chinese
  46. Default                                  : Yes
  47. Forced                                   : No

  48. Text
  49. ID                                       : 3
  50. Format                                   : UTF-8
  51. Codec ID                                 : S_TEXT/UTF8
  52. Codec ID/Info                            : UTF-8 Plain Text
  53. Duration                                 : 1 h 35 min
  54. Bit rate                                 : 54 b/s
  55. Count of elements                        : 1827
  56. Stream size                              : 37.8 KiB (0%)
  57. Language                                 : English
  58. Default                                  : Yes
  59. Forced                                   : No

  60. Menu
  61. 00:00:00.000                             : en:Chapter 01
  62. 00:07:01.666                             : en:Chapter 02
  63. 00:16:35.541                             : en:Chapter 03
  64. 00:23:50.333                             : en:Chapter 04
  65. 00:32:31.958                             : en:Chapter 05
  66. 00:40:45.750                             : en:Chapter 06
  67. 00:49:06.666                             : en:Chapter 07
  68. 00:56:17.041                             : en:Chapter 08
  69. 01:04:20.041                             : en:Chapter 09
  70. 01:13:55.958                             : en:Chapter 10
  71. 01:23:55.250                             : en:Chapter 11
  72. 01:30:00.375                             : en:Chapter 12
复制代码

情圣 The.Magnificent.Scoundrels.1991.CHINESE.1080p.BluRay.x264.DTS-FGT 8.85GB-2.png 情圣 The.Magnificent.Scoundrels.1991.CHINESE.1080p.BluRay.x264.DTS-FGT 8.85GB-3.png 情圣 The.Magnificent.Scoundrels.1991.CHINESE.1080p.BluRay.x264.DTS-FGT 8.85GB-4.png







回复

使用道具 举报

蓝光币
636
发表于 2020-4-29 09:11:29 | 显示全部楼层
谢谢楼主无私分享。
回复 支持 反对

使用道具 举报

蓝光币
173
发表于 2020-5-26 17:10:55 | 显示全部楼层
也是星爷的一部经典
回复 支持 反对

使用道具 举报

懒得打字嘛,点击右侧快捷回复 【右侧内容,后台自定义】
您需要登录后才可以回帖 登录 | 立即加入

本版积分规则

Archiver|小黑屋| 蓝光电影网 |网站地图

Copyright © 2021 Comsenz Inc. Powered by 蓝光电影网

蓝光电影网

本站内容由用户自主分享和转载自互联网,转载目的在于传递更多信息,并不代表本网赞同其观点和对其真实性负责。

如有侵权、违反国家法律政策行为,请联系我们,我们会第一时间及时清除和处理!

举报反馈邮箱:[email protected]

快速回复 返回顶部 返回列表