找回密码

蓝光电影网

查看: 554|回复: 4

[科幻] 思维游戏 MindGamers.2015.1080p.BluRay.x264.DTS-FGT 8.99GB

[复制链接]
蓝光币
515
发表于 2020-4-28 23:59:20 | 显示全部楼层 |阅读模式
思维游戏 MindGamers.2015.1080p.BluRay.x264.DTS-FGT 8.99GB-1.png

译  名 思维游戏 / Deus Ex Machina / MindGamers / 脑波游戏(台)
片  名 DxM
年  代 2015
产  地 奥天时
类  别 行动 / 科幻 / 惊悚
语  言 英语
上映日期 2015-10-04(英国格林电影节)
IMDb评分  3.6/10 from 711 users
IMDb链接  https://www.imdb.com/title/tt3625516
豆瓣评分 0/10 from 0 users
豆瓣链接 https://movie.douban.com/subject/25960029/
片  长 97分钟
导  演 Andrew Goth
编  剧 乔安娜·蕾 Joanne Reay
主  演 汤姆·佩恩 Tom Payne
       山姆·尼尔 Sam Neill
       多米尼克·蒂珀 Dominique Tipper
       梅利亚·科尔林 Melia Kreiling
       安东尼娅·坎贝尔·休斯 Antonia Campbell-Hughes
       Predrag Bjelac
       朱利安·布里奇 Julian Bleach
       Turlough Convery
       Simon Day
       乌苏拉·斯特劳斯 Ursula Strauss


标  签 科幻 | 2015 | 奥天时电影 | 奥天时 | 山姆·尼尔 | 行动 | 美国 | 惊悚

简  介  

  故事关于一群才华横溢的年轻门生们在一次科学尝试中获得了冲破性成功:建立了一个无线神经收集,并经过量子计较性可以毗连到人类思维。经过这项技术,人类终究可以初次实现实在的常识才能同享,比如能将某小我具有的活动技术转移到另一小我身上。这群年轻人决议免费推行该技术,将其视作实现常识自在与人类同等的重要条件。但他们很快发现,他们本身是以成为一个更大更邪恶的尝试的一部分。黑暗势力随之退场,并威胁要操纵这一技术实现对人类群体的控制。
  1. Video
  2. ID                                       : 1
  3. Format                                   : AVC
  4. Format/Info                              : Advanced Video Codec
  5. Format profile                           : [email protected]
  6. Format settings                          : CABAC / 4 Ref Frames
  7. Format settings, CABAC                   : Yes
  8. Format settings, Reference frames        : 4 frames
  9. Codec ID                                 : V_MPEG4/ISO/AVC
  10. Duration                                 : 1 h 38 min
  11. Bit rate                                 : 11.5 Mb/s
  12. Width                                    : 1 920 pixels
  13. Height                                   : 804 pixels
  14. Display aspect ratio                     : 2.40:1
  15. Frame rate mode                          : Constant
  16. Frame rate                               : 23.976 (24000/1001/189150) FPS
  17. Color space                              : YUV
  18. Chroma subsampling                       : 4:2:0
  19. Bit depth                                : 8 bits
  20. Scan type                                : Progressive
  21. Bits/(Pixel*Frame)                       : 0.311
  22. Stream size                              : 7.94 GiB (88%)
  23. Title                                    : MindGamers.2015.1080p.BluRay.x264.DTS-FGT
  24. Writing library                          : x264 core 148 r2748 97eaef2
  25. Encoding settings                        : cabac=1 / ref=4 / deblock=1:-2:-2 / analyse=0x3:0x113 / me=umh / subme=9 / psy=1 / psy_rd=1.00:0.15 / mixed_ref=1 / me_range=16 / chroma_me=1 / trellis=2 / 8x8dct=1 / cqm=0 / deadzone=21,11 / fast_pskip=1 / chroma_qp_offset=-3 / threads=72 / lookahead_threads=3 / sliced_threads=0 / nr=0 / decimate=1 / interlaced=0 / bluray_compat=0 / constrained_intra=0 / bframes=3 / b_pyramid=2 / b_adapt=1 / b_bias=0 / direct=3 / weightb=1 / open_gop=0 / weightp=2 / keyint=250 / keyint_min=25 / scenecut=40 / intra_refresh=0 / rc_lookahead=50 / rc=2pass / mbtree=1 / bitrate=11500 / ratetol=1.0 / qcomp=0.60 / qpmin=0 / qpmax=69 / qpstep=4 / cplxblur=20.0 / qblur=0.5 / vbv_maxrate=31250 / vbv_bufsize=31250 / nal_hrd=none / filler=0 / ip_ratio=1.40 / aq=1:1.00
  26. Language                                 : English
  27. Default                                  : Yes
  28. Forced                                   : No

  29. Audio
  30. ID                                       : 2
  31. Format                                   : DTS
  32. Format/Info                              : Digital Theater Systems
  33. Codec ID                                 : A_DTS
  34. Duration                                 : 1 h 38 min
  35. Bit rate mode                            : Constant
  36. Bit rate                                 : 1 509 kb/s
  37. Channel(s)                               : 6 channels
  38. Channel layout                           : C L R Ls Rs LFE
  39. Sampling rate                            : 48.0 kHz
  40. Frame rate                               : 93.750 FPS (512 SPF)
  41. Bit depth                                : 24 bits
  42. Compression mode                         : Lossy
  43. Stream size                              : 1.04 GiB (12%)
  44. Title                                    : MindGamers.2015.1080p.BluRay.x264.DTS-FGT
  45. Language                                 : English
  46. Default                                  : Yes
  47. Forced                                   : No

  48. Text
  49. ID                                       : 3
  50. Format                                   : UTF-8
  51. Codec ID                                 : S_TEXT/UTF8
  52. Codec ID/Info                            : UTF-8 Plain Text
  53. Duration                                 : 1 h 29 min
  54. Bit rate                                 : 32 b/s
  55. Count of elements                        : 769
  56. Stream size                              : 21.4 KiB (0%)
  57. Language                                 : English
  58. Default                                  : Yes
  59. Forced                                   : No

  60. Menu
  61. 00:00:00.000                             : en:Kapitel 01
  62. 00:06:20.797                             : en:Kapitel 02
  63. 00:09:56.679                             : en:Kapitel 03
  64. 00:15:37.686                             : en:Kapitel 04
  65. 00:20:30.562                             : en:Kapitel 05
  66. 00:25:26.316                             : en:Kapitel 06
  67. 00:29:34.814                             : en:Kapitel 07
  68. 00:33:44.897                             : en:Kapitel 08
  69. 00:38:46.949                             : en:Kapitel 09
  70. 00:42:06.941                             : en:Kapitel 10
  71. 00:47:32.641                             : en:Kapitel 11
  72. 00:50:45.667                             : en:Kapitel 12
  73. 00:57:42.333                             : en:Kapitel 13
  74. 01:03:01.277                             : en:Kapitel 14
  75. 01:08:14.090                             : en:Kapitel 15
  76. 01:14:16.869                             : en:Kapitel 16
  77. 01:20:13.600                             : en:Kapitel 17
  78. 01:24:22.015                             : en:Kapitel 18
  79. 01:28:17.709                             : en:Kapitel 19
  80. 01:33:03.578                             : en:Kapitel 20
复制代码

思维游戏 MindGamers.2015.1080p.BluRay.x264.DTS-FGT 8.99GB-2.png 思维游戏 MindGamers.2015.1080p.BluRay.x264.DTS-FGT 8.99GB-3.png 思维游戏 MindGamers.2015.1080p.BluRay.x264.DTS-FGT 8.99GB-4.png







回复

使用道具 举报

蓝光币
425
发表于 2020-4-29 09:21:27 | 显示全部楼层
楼主发贴辛苦了,谢谢楼主分享!我觉得蓝光电影网是注册对了!
回复 支持 反对

使用道具 举报

蓝光币
425
发表于 2020-4-29 09:21:41 | 显示全部楼层

这个帖子不回对不起自己!我想我是一天也不能离开蓝光电影网
回复 支持 反对

使用道具 举报

蓝光币
3
发表于 2020-4-29 10:54:11 | 显示全部楼层

这东西我收了!谢谢楼主!蓝光电影网真好!
回复 支持 反对

使用道具 举报

蓝光币
336
发表于 2020-4-30 23:15:01 | 显示全部楼层

我看不错噢 谢谢楼主!蓝光电影网越来越好!
回复 支持 反对

使用道具 举报

懒得打字嘛,点击右侧快捷回复 【右侧内容,后台自定义】
您需要登录后才可以回帖 登录 | 立即加入

本版积分规则

Archiver|小黑屋| 蓝光电影网 |网站地图

Copyright © 2021 Comsenz Inc. Powered by 蓝光电影网

蓝光电影网

本站内容由用户自主分享和转载自互联网,转载目的在于传递更多信息,并不代表本网赞同其观点和对其真实性负责。

如有侵权、违反国家法律政策行为,请联系我们,我们会第一时间及时清除和处理!

举报反馈邮箱:[email protected]

快速回复 返回顶部 返回列表