找回密码

蓝光电影网

查看: 1385|回复: 1

[剧情] 失乐园 Lost.Paradise.1997.JAPANESE.1080p.BluRay.x264.DTS-FGT 10.85GB

[复制链接]
蓝光币
511
发表于 2020-4-29 00:00:11 | 显示全部楼层 |阅读模式
失乐园 Lost.Paradise.1997.JAPANESE.1080p.BluRay.x264.DTS-FGT 10.85GB-1.png

译  名 失乐园 / Shitsurakuen
片  名 失楽園
年  代 1997
产  地 日本
类  别 剧情 / 恋爱 / 情色
语  言 日语
上映日期 1997-05-10(日本)
IMDb评分  6.6/10 from 471 users
IMDb链接  https://www.imdb.com/title/tt0120120
豆瓣评分 7.4/10 from 27050 users
豆瓣链接 https://movie.douban.com/subject/1308567/
片  长 119分钟
导  演 森田芳光 Yoshimitsu Morita
编  剧 筒井智美 Tomomi Tsutsui / 渡边淳一 Junichi Watanabe
主  演 役所广司 K?ji Yakusho
       黑木瞳 Hitomi Kuroki
       寺尾聪 Akira Terao
       柴俊夫 Toshio Shiba
       星野知子 Tomoko Hoshino
       木村佳乃 Yoshino Kimura


标  签 日本 | 日本电影 | 情色 | 失乐园 | 黑木瞳 | 恋爱 | 森田芳光 | 役所广司

简  介  

  久木祥一郎(役所广司饰)是一家出书社的高级编辑,妻子久木文枝(星野知子饰)做设想陶制品,已成年的女儿在医院工作,很少回家。祥一朗感抵家庭生活有趣,夫妻间总是客客套气。
  祥一郎有个情人,专业书法教师松原凛子(黑木瞳饰)。凛子气质文雅,是个聪明女子。惋惜嫁了个毫无情味的医生丈夫松原晴彦。他冷冰冰的,致使二人婚姻空虚。一次他果断地告诉凛子决不会和她仳离,他把握有妻子偷情的证据,并揭发了工作。另一边文枝却冷静承受,终极也只能仳离。冬季到来,祥一郎和凛子怎样才能永久的和对方长相厮守呢?

获奖情况  

  第21届日本电影学院奖(1998)
  最好导演(提名) 森田芳光
  最好编剧(提名) 筒井智美
  最好女配角 黑木瞳
  最好男配角(提名) 寺尾聪
  最好女配角(提名) 星野知子
  最好配乐(提名) 大岛满
  最好摄影(提名) 高濑比吕志
  最好美术指导(提名) 小泽秀高
  最好照明(提名) 小野晃
  最好录音(提名) 桥本文雄
  最好剪辑(提名) 田中慎二
  最好新人 木村佳乃

  第22届报知映画赏(1997)
  最好女配角 黑木瞳
  1. Video
  2. ID                                       : 1
  3. Format                                   : AVC
  4. Format/Info                              : Advanced Video Codec
  5. Format profile                           : [email protected]
  6. Format settings                          : CABAC / 4 Ref Frames
  7. Format settings, CABAC                   : Yes
  8. Format settings, Reference frames        : 4 frames
  9. Codec ID                                 : V_MPEG4/ISO/AVC
  10. Duration                                 : 1 h 59 min
  11. Bit rate                                 : 11.5 Mb/s
  12. Width                                    : 1 920 pixels
  13. Height                                   : 1 036 pixels
  14. Display aspect ratio                     : 1.85:1
  15. Frame rate mode                          : Constant
  16. Frame rate                               : 23.976 (24000/1001/189150) FPS
  17. Color space                              : YUV
  18. Chroma subsampling                       : 4:2:0
  19. Bit depth                                : 8 bits
  20. Scan type                                : Progressive
  21. Bits/(Pixel*Frame)                       : 0.241
  22. Stream size                              : 9.59 GiB (88%)
  23. Title                                    : Lost.Paradise.1997.JAPANESE.1080p.BluRay.x264.DTS-FGT
  24. Writing library                          : x264 core 148 r2748 97eaef2
  25. Encoding settings                        : cabac=1 / ref=4 / deblock=1:-2:-2 / analyse=0x3:0x113 / me=umh / subme=9 / psy=1 / psy_rd=1.00:0.15 / mixed_ref=1 / me_range=16 / chroma_me=1 / trellis=2 / 8x8dct=1 / cqm=0 / deadzone=21,11 / fast_pskip=1 / chroma_qp_offset=-3 / threads=24 / lookahead_threads=3 / sliced_threads=0 / nr=0 / decimate=1 / interlaced=0 / bluray_compat=0 / constrained_intra=0 / bframes=3 / b_pyramid=2 / b_adapt=1 / b_bias=0 / direct=3 / weightb=1 / open_gop=0 / weightp=2 / keyint=250 / keyint_min=25 / scenecut=40 / intra_refresh=0 / rc_lookahead=50 / rc=2pass / mbtree=1 / bitrate=11500 / ratetol=1.0 / qcomp=0.60 / qpmin=0 / qpmax=69 / qpstep=4 / cplxblur=20.0 / qblur=0.5 / vbv_maxrate=31250 / vbv_bufsize=31250 / nal_hrd=none / filler=0 / ip_ratio=1.40 / aq=1:1.00
  26. Language                                 : Japanese
  27. Default                                  : Yes
  28. Forced                                   : No

  29. Audio
  30. ID                                       : 2
  31. Format                                   : DTS
  32. Format/Info                              : Digital Theater Systems
  33. Codec ID                                 : A_DTS
  34. Duration                                 : 1 h 59 min
  35. Bit rate mode                            : Constant
  36. Bit rate                                 : 1 509 kb/s
  37. Channel(s)                               : 2 channels
  38. Channel layout                           : L R
  39. Sampling rate                            : 48.0 kHz
  40. Frame rate                               : 93.750 FPS (512 SPF)
  41. Bit depth                                : 16 bits
  42. Compression mode                         : Lossy
  43. Stream size                              : 1.26 GiB (12%)
  44. Title                                    : Lost.Paradise.1997.JAPANESE.1080p.BluRay.x264.DTS-FGT
  45. Language                                 : Japanese
  46. Default                                  : Yes
  47. Forced                                   : No

  48. Text
  49. ID                                       : 3
  50. Format                                   : UTF-8
  51. Codec ID                                 : S_TEXT/UTF8
  52. Codec ID/Info                            : UTF-8 Plain Text
  53. Duration                                 : 1 h 58 min
  54. Bit rate                                 : 27 b/s
  55. Count of elements                        : 824
  56. Stream size                              : 24.3 KiB (0%)
  57. Language                                 : English
  58. Default                                  : Yes
  59. Forced                                   : No

  60. Menu
  61. 00:00:00.000                             : en:Chapter 01
  62. 00:02:39.826                             : en:Chapter 02
  63. 00:04:46.328                             : en:Chapter 03
  64. 00:12:33.962                             : en:Chapter 04
  65. 00:20:17.508                             : en:Chapter 05
  66. 00:24:13.577                             : en:Chapter 06
  67. 00:28:31.835                             : en:Chapter 07
  68. 00:32:54.890                             : en:Chapter 08
  69. 00:37:33.751                             : en:Chapter 09
  70. 00:41:31.322                             : en:Chapter 10
  71. 00:46:41.632                             : en:Chapter 11
  72. 00:56:20.794                             : en:Chapter 12
  73. 00:58:17.869                             : en:Chapter 13
  74. 01:00:28.458                             : en:Chapter 14
  75. 01:05:47.026                             : en:Chapter 15
  76. 01:09:29.415                             : en:Chapter 16
  77. 01:13:20.146                             : en:Chapter 17
  78. 01:17:33.649                             : en:Chapter 18
  79. 01:24:38.073                             : en:Chapter 19
  80. 01:28:33.308                             : en:Chapter 20
  81. 01:32:35.133                             : en:Chapter 21
  82. 01:36:35.957                             : en:Chapter 22
  83. 01:43:40.756                             : en:Chapter 23
  84. 01:47:09.256                             : en:Chapter 24
复制代码

失乐园 Lost.Paradise.1997.JAPANESE.1080p.BluRay.x264.DTS-FGT 10.85GB-2.png 失乐园 Lost.Paradise.1997.JAPANESE.1080p.BluRay.x264.DTS-FGT 10.85GB-3.png 失乐园 Lost.Paradise.1997.JAPANESE.1080p.BluRay.x264.DTS-FGT 10.85GB-4.png






回复

使用道具 举报

蓝光币
756
发表于 2020-4-29 13:27:41 | 显示全部楼层
楼主发贴辛苦了,谢谢楼主分享!我觉得蓝光电影网是注册对了!
回复 支持 反对

使用道具 举报

懒得打字嘛,点击右侧快捷回复 【右侧内容,后台自定义】
您需要登录后才可以回帖 登录 | 立即加入

本版积分规则

Archiver|小黑屋| 蓝光电影网 |网站地图

Copyright © 2021 Comsenz Inc. Powered by 蓝光电影网

蓝光电影网

本站内容由用户自主分享和转载自互联网,转载目的在于传递更多信息,并不代表本网赞同其观点和对其真实性负责。

如有侵权、违反国家法律政策行为,请联系我们,我们会第一时间及时清除和处理!

举报反馈邮箱:[email protected]

快速回复 返回顶部 返回列表