找回密码

蓝光电影网

查看: 299|回复: 1

[剧情] 放松日 Awaydays.2009.1080p.BluRay.x264-HANDJOB 7.73GB

[复制链接]
蓝光币
515
发表于 2020-4-29 22:07:17 | 显示全部楼层 |阅读模式
p1426745406.jpg

译  名 放松日
片  名 Awaydays
年  代 2009
产  地 英国
类  别 剧情
语  言 英语
上映日期 2009-05-22
IMDb评分  5.8/10 from 3146 users
IMDb链接  https://www.imdb.com/title/tt1137436
豆瓣评分 7.5/10 from 1783 users
豆瓣链接 https://movie.douban.com/subject/3446815/
片  长 105分钟
导  演 Pat Holden
编  剧 Kevin Sampson
主  演 Stephen Graham
       Nicky Bell
       Liam Boyle


标  签 英国 | 青春 | 英国电影 | 摇滚 | 暴力 | UK | 剧情 | 2009

简  介  

  故事发生在1979年的英格兰,卡迪(尼基·贝尔 Nicky Bell 饰)只是一介小小公务员,母亲归天后,他的家庭就完全变得四分五裂,父亲整天沉醉在悲痛当中,妹妹则成为了叛逆少女。一次偶然中,卡迪结识了名叫埃尔维斯(连姆·博伊尔 Liam Boyle 饰)的男人,埃尔维斯怪异的气质和本性深深吸引着卡迪,更让卡迪感应兴奋的是,埃尔维斯居然是他一向想要加入的帮派“The Pack”中的一员。
  为了加入帮派,卡迪不能欠亨过各种光怪陆离的测试,在埃尔维斯的影响下,他起头打仗毒品,本性和脾性也变得越来越急躁。新任带领人的下台让“The Pack”的职位变得朝不保夕,在这样一个动乱的情况里,误入邪路的卡迪该何去何从呢?
  1. Video
  2. ID                                       : 1
  3. Format                                   : AVC
  4. Format/Info                              : Advanced Video Codec
  5. Format profile                           : [email protected]
  6. Format settings                          : CABAC / 4 Ref Frames
  7. Format settings, CABAC                   : Yes
  8. Format settings, Reference frames        : 4 frames
  9. Codec ID                                 : V_MPEG4/ISO/AVC
  10. Duration                                 : 1 h 45 min
  11. Bit rate                                 : 9 901 kb/s
  12. Width                                    : 1 904 pixels
  13. Height                                   : 1 036 pixels
  14. Display aspect ratio                     : 1.85:1
  15. Frame rate mode                          : Constant
  16. Frame rate                               : 24.000 FPS
  17. Color space                              : YUV
  18. Chroma subsampling                       : 4:2:0
  19. Bit depth                                : 8 bits
  20. Scan type                                : Progressive
  21. Bits/(Pixel*Frame)                       : 0.209
  22. Stream size                              : 7.26 GiB (94%)
  23. Writing library                          : x264 core 157 r2935 545de2f
  24. Encoding settings                        : cabac=1 / ref=4 / deblock=1:-3:-3 / analyse=0x3:0x133 / me=umh / subme=10 / psy=1 / psy_rd=1.00:0.00 / mixed_ref=1 / me_range=32 / chroma_me=1 / trellis=2 / 8x8dct=1 / cqm=0 / deadzone=21,11 / fast_pskip=0 / chroma_qp_offset=-2 / threads=12 / lookahead_threads=3 / sliced_threads=0 / nr=0 / decimate=0 / interlaced=0 / bluray_compat=0 / constrained_intra=0 / bframes=16 / b_pyramid=2 / b_adapt=2 / b_bias=0 / direct=3 / weightb=1 / open_gop=0 / weightp=2 / keyint=240 / keyint_min=24 / scenecut=40 / intra_refresh=0 / rc_lookahead=60 / rc=crf / mbtree=0 / crf=18.0 / qcomp=0.60 / qpmin=0 / qpmax=69 / qpstep=4 / vbv_maxrate=62500 / vbv_bufsize=78125 / crf_max=0.0 / nal_hrd=none / filler=0 / ip_ratio=1.40 / pb_ratio=1.30 / aq=2:1.00
  25. Language                                 : English
  26. Default                                  : Yes
  27. Forced                                   : No
  28. Color range                              : Limited
  29. Color primaries                          : BT.709
  30. Transfer characteristics                 : BT.709
  31. Matrix coefficients                      : BT.709

  32. Audio
  33. ID                                       : 2
  34. Format                                   : AC-3
  35. Format/Info                              : Audio Coding 3
  36. Commercial name                          : Dolby Digital
  37. Codec ID                                 : A_AC3
  38. Duration                                 : 1 h 45 min
  39. Bit rate mode                            : Constant
  40. Bit rate                                 : 640 kb/s
  41. Channel(s)                               : 6 channels
  42. Channel layout                           : L R C LFE Ls Rs
  43. Sampling rate                            : 48.0 kHz
  44. Frame rate                               : 31.250 FPS (1536 SPF)
  45. Bit depth                                : 16 bits
  46. Compression mode                         : Lossy
  47. Stream size                              : 481 MiB (6%)
  48. Language                                 : English
  49. Service kind                             : Complete Main
  50. Default                                  : Yes
  51. Forced                                   : No

  52. Text
  53. ID                                       : 3
  54. Format                                   : UTF-8
  55. Codec ID                                 : S_TEXT/UTF8
  56. Codec ID/Info                            : UTF-8 Plain Text
  57. Duration                                 : 1 h 44 min
  58. Bit rate                                 : 49 b/s
  59. Count of elements                        : 1147
  60. Stream size                              : 37.7 KiB (0%)
  61. Language                                 : English
  62. Default                                  : No
  63. Forced                                   : No

  64. Menu
  65. 00:00:00.000                             : :Chapter 1
  66. 00:09:47.083                             : :Chapter 2
  67. 00:20:42.833                             : :Chapter 3
  68. 00:28:57.708                             : :Chapter 4
  69. 00:40:34.583                             : :Chapter 5
  70. 00:47:31.792                             : :Chapter 6
  71. 00:54:49.292                             : :Chapter 7
  72. 01:05:30.250                             : :Chapter 8
  73. 01:16:50.625                             : :Chapter 9
  74. 01:26:18.625                             : :Chapter 10
  75. 01:34:57.375                             : :Chapter 11
  76. 01:41:35.000                             : :Chapter 12
复制代码

放松日 Awaydays.2009.1080p.BluRay.x264-HANDJOB 7.73GB-1.png 放松日 Awaydays.2009.1080p.BluRay.x264-HANDJOB 7.73GB-2.png 放松日 Awaydays.2009.1080p.BluRay.x264-HANDJOB 7.73GB-3.png







回复

使用道具 举报

蓝光币
1475
发表于 2020-4-29 22:58:49 | 显示全部楼层
太好啦&萬分感謝版主的無私發佈分享%
回复 支持 反对

使用道具 举报

懒得打字嘛,点击右侧快捷回复 【右侧内容,后台自定义】
您需要登录后才可以回帖 登录 | 立即加入

本版积分规则

Archiver|小黑屋| 蓝光电影网 |网站地图

Copyright © 2021 Comsenz Inc. Powered by 蓝光电影网

蓝光电影网

本站内容由用户自主分享和转载自互联网,转载目的在于传递更多信息,并不代表本网赞同其观点和对其真实性负责。

如有侵权、违反国家法律政策行为,请联系我们,我们会第一时间及时清除和处理!

举报反馈邮箱:[email protected]

快速回复 返回顶部 返回列表