找回密码

蓝光电影网

查看: 304|回复: 2

[剧情] 莎侬的彩虹 Amazing.Racer.2009.1080p.BluRay.x264-iFPD 6.56GB

[复制链接]
蓝光币
515
发表于 2020-4-30 11:03:09 | 显示全部楼层 |阅读模式
莎侬的彩虹 Amazing.Racer.2009.1080p.BluRay.x264-iFPD 6.56GB-1.png

译  名 莎侬的彩虹 / Amazing Racer / 超凡赛手 / 超凡赛者
片  名 Shannon's Rainbow
年  代 2009
产  地 美国
类  别 家庭
语  言 英语
上映日期 2009-04-23
IMDb评分  5.4/10 from 600 users
IMDb链接  https://www.imdb.com/title/tt1247691
豆瓣评分 0/10 from 0 users
豆瓣链接 https://movie.douban.com/subject/3219579/
片  长 92分钟
导  演 Frank E. Johnson
编  剧 Linda Morris / John Mowod / Larry Richert
主  演 朱莉安妮·米歇尔 Julianne Michelle
       克莱尔·弗兰妮 Claire Forlani
       埃里克·罗伯茨 Eric Roberts
       小路易斯·格赛特 Louis Gossett Jr.
       杰森·杰德里克 Jason Gedrick
       达丽尔·汉纳 Daryl Hannah
       迈克尔·马德森 Michael Madsen
       克里丝塔·艾伦 Krista Allen


简  介  

  暂无相关剧情先容
  1. Video
  2. ID                                       : 1
  3. Format                                   : AVC
  4. Format/Info                              : Advanced Video Codec
  5. Format profile                           : [email protected]
  6. Format settings                          : CABAC / 5 Ref Frames
  7. Format settings, CABAC                   : Yes
  8. Format settings, Reference frames        : 5 frames
  9. Codec ID                                 : V_MPEG4/ISO/AVC
  10. Duration                                 : 1 h 31 min
  11. Bit rate                                 : 9 313 kb/s
  12. Width                                    : 1 920 pixels
  13. Height                                   : 800 pixels
  14. Display aspect ratio                     : 2.40:1
  15. Frame rate mode                          : Constant
  16. Frame rate                               : 23.976 (23976/1000/189150) FPS
  17. Color space                              : YUV
  18. Chroma subsampling                       : 4:2:0
  19. Bit depth                                : 8 bits
  20. Scan type                                : Progressive
  21. Bits/(Pixel*Frame)                       : 0.253
  22. Stream size                              : 5.81 GiB (89%)
  23. Title                                    : Amazing Racer (2013)
  24. Writing library                          : x264 core 133 r2334 a3ac64b
  25. Encoding settings                        : cabac=1 / ref=5 / deblock=1:0:0 / analyse=0x3:0x113 / me=umh / subme=7 / psy=1 / psy_rd=1.00:0.00 / mixed_ref=1 / me_range=16 / chroma_me=1 / trellis=1 / 8x8dct=1 / cqm=0 / deadzone=21,11 / fast_pskip=0 / chroma_qp_offset=-2 / threads=6 / lookahead_threads=1 / sliced_threads=0 / nr=0 / decimate=1 / interlaced=0 / bluray_compat=0 / constrained_intra=0 / bframes=3 / b_pyramid=2 / b_adapt=2 / b_bias=0 / direct=3 / weightb=1 / open_gop=0 / weightp=2 / keyint=250 / keyint_min=23 / scenecut=40 / intra_refresh=0 / rc_lookahead=50 / rc=2pass / mbtree=1 / bitrate=9313 / ratetol=1.0 / qcomp=0.60 / qpmin=0 / qpmax=69 / qpstep=4 / cplxblur=20.0 / qblur=0.5 / ip_ratio=1.40 / aq=1:1.00
  26. Default                                  : Yes
  27. Forced                                   : No

  28. Audio
  29. ID                                       : 2
  30. Format                                   : DTS
  31. Format/Info                              : Digital Theater Systems
  32. Codec ID                                 : A_DTS
  33. Duration                                 : 1 h 31 min
  34. Bit rate mode                            : Constant
  35. Bit rate                                 : 960 kb/s
  36. Channel(s)                               : 6 channels
  37. Channel layout                           : C L R Ls Rs LFE
  38. Sampling rate                            : 48.0 kHz
  39. Frame rate                               : 93.750 FPS (512 SPF)
  40. Bit depth                                : 24 bits
  41. Compression mode                         : Lossy
  42. Stream size                              : 628 MiB (9%)
  43. Title                                    : DTS
  44. Language                                 : English
  45. Default                                  : Yes
  46. Forced                                   : No
复制代码

莎侬的彩虹 Amazing.Racer.2009.1080p.BluRay.x264-iFPD 6.56GB-2.png 莎侬的彩虹 Amazing.Racer.2009.1080p.BluRay.x264-iFPD 6.56GB-3.png 莎侬的彩虹 Amazing.Racer.2009.1080p.BluRay.x264-iFPD 6.56GB-4.png







回复

使用道具 举报

懒得打字嘛,点击右侧快捷回复 【右侧内容,后台自定义】
您需要登录后才可以回帖 登录 | 立即加入

本版积分规则

Archiver|小黑屋| 蓝光电影网 |网站地图

Copyright © 2021 Comsenz Inc. Powered by 蓝光电影网

蓝光电影网

本站内容由用户自主分享和转载自互联网,转载目的在于传递更多信息,并不代表本网赞同其观点和对其真实性负责。

如有侵权、违反国家法律政策行为,请联系我们,我们会第一时间及时清除和处理!

举报反馈邮箱:[email protected]

快速回复 返回顶部 返回列表