找回密码

蓝光电影网

查看: 591|回复: 8

[动作] 古老国度的传说 Abelar.Tales.of.an.Ancient.Empire.2010.1080p.BluRay.x264-DOCUMENT 8.75GB

[复制链接]
蓝光币
519
发表于 2020-4-30 11:05:06 | 显示全部楼层 |阅读模式
陈腐国家的传闻 Abelar.Tales.of.an.Ancient.Empire.2010.1080p.BluRay.x264-DOCUMENT 8.75GB-1.png

译  名 陈腐国家的传闻
片  名 Tales of the Ancient Empire
年  代 2010
产  地 美国 / 阿根廷
类  别 行动 / 冒险
语  言 英语
上映日期 2009
IMDb评分  2.4/10 from 1445 users
IMDb链接  https://www.imdb.com/title/tt1136688
豆瓣评分 2.1/10 from 109 users
豆瓣链接 https://movie.douban.com/subject/3082639/
片  长 86分钟
导  演 Albert Pyun
编  剧 Cynthia Curnan
主  演 Christopher Lambert
       Kevin Sorbo
       Ralf Moeller
       Jennifer Siebel Newsom
       Melissa Ordway
       Scott Paulin


标  签 美国 | 魔幻 | 烂片 | 电影 | 阿根廷 | 美国烂片 | 美国电影 | 2009

简  介  

  故事报告的是一个公首要寻觅五个最巨大的骑士帮助她从邪恶的巫婆手里拯救她的王国.
  1. Video
  2. ID                                       : 1
  3. Format                                   : AVC
  4. Format/Info                              : Advanced Video Codec
  5. Format profile                           : [email protected]
  6. Format settings                          : CABAC / 5 Ref Frames
  7. Format settings, CABAC                   : Yes
  8. Format settings, Reference frames        : 5 frames
  9. Codec ID                                 : V_MPEG4/ISO/AVC
  10. Duration                                 : 1 h 29 min
  11. Bit rate                                 : 12.5 Mb/s
  12. Width                                    : 1 920 pixels
  13. Height                                   : 816 pixels
  14. Display aspect ratio                     : 2.35:1
  15. Frame rate mode                          : Constant
  16. Frame rate                               : 23.976 (24000/1001/189150) FPS
  17. Color space                              : YUV
  18. Chroma subsampling                       : 4:2:0
  19. Bit depth                                : 8 bits
  20. Scan type                                : Progressive
  21. Bits/(Pixel*Frame)                       : 0.333
  22. Stream size                              : 7.63 GiB (87%)
  23. Writing library                          : x264 core 125 r2200 999b753
  24. Encoding settings                        : cabac=1 / ref=5 / deblock=1:0:0 / analyse=0x3:0x133 / me=umh / subme=7 / psy=1 / psy_rd=1.00:0.00 / mixed_ref=1 / me_range=16 / chroma_me=1 / trellis=1 / 8x8dct=1 / cqm=0 / deadzone=21,11 / fast_pskip=0 / chroma_qp_offset=-2 / threads=3 / lookahead_threads=1 / sliced_threads=0 / nr=0 / decimate=1 / interlaced=0 / bluray_compat=0 / constrained_intra=0 / bframes=3 / b_pyramid=2 / b_adapt=2 / b_bias=0 / direct=3 / weightb=1 / open_gop=0 / weightp=2 / keyint=250 / keyint_min=23 / scenecut=40 / intra_refresh=0 / rc_lookahead=50 / rc=2pass / mbtree=1 / bitrate=12509 / ratetol=1.0 / qcomp=0.60 / qpmin=0 / qpmax=69 / qpstep=4 / cplxblur=20.0 / qblur=0.5 / ip_ratio=1.40 / aq=1:1.00
  25. Language                                 : English
  26. Default                                  : No
  27. Forced                                   : No

  28. Audio
  29. ID                                       : 2
  30. Format                                   : DTS
  31. Format/Info                              : Digital Theater Systems
  32. Codec ID                                 : A_DTS
  33. Duration                                 : 1 h 29 min
  34. Bit rate mode                            : Constant
  35. Bit rate                                 : 1 509 kb/s
  36. Channel(s)                               : 6 channels
  37. Channel layout                           : C L R Ls Rs LFE
  38. Sampling rate                            : 48.0 kHz
  39. Frame rate                               : 93.750 FPS (512 SPF)
  40. Bit depth                                : 24 bits
  41. Compression mode                         : Lossy
  42. Stream size                              : 965 MiB (11%)
  43. Language                                 : English
  44. Default                                  : Yes
  45. Forced                                   : No
复制代码

陈腐国家的传闻 Abelar.Tales.of.an.Ancient.Empire.2010.1080p.BluRay.x264-DOCUMENT 8.75GB-2.png 陈腐国家的传闻 Abelar.Tales.of.an.Ancient.Empire.2010.1080p.BluRay.x264-DOCUMENT 8.75GB-3.png 陈腐国家的传闻 Abelar.Tales.of.an.Ancient.Empire.2010.1080p.BluRay.x264-DOCUMENT 8.75GB-4.png







回复

使用道具 举报

懒得打字嘛,点击右侧快捷回复 【右侧内容,后台自定义】
您需要登录后才可以回帖 登录 | 立即加入

本版积分规则

Archiver|小黑屋| 蓝光电影网 |网站地图

Copyright © 2021 Comsenz Inc. Powered by 蓝光电影网

蓝光电影网

本站内容由用户自主分享和转载自互联网,转载目的在于传递更多信息,并不代表本网赞同其观点和对其真实性负责。

如有侵权、违反国家法律政策行为,请联系我们,我们会第一时间及时清除和处理!

举报反馈邮箱:[email protected]

快速回复 返回顶部 返回列表