找回密码

蓝光电影网

查看: 763|回复: 2

[剧情] 桃姐 A.Simple.Life.2011.1080p.BluRay.x264-MELiTE 7.65GB

[复制链接]
蓝光币
511
发表于 2020-4-30 11:06:05 | 显示全部楼层 |阅读模式
桃姐 A.Simple.Life.2011.1080p.BluRay.x264-MELiTE 7.65GB-1.png

译  名 A Simple Life
片  名 桃姐
年  代 2011
产  地 中国香港
类  别 剧情 / 家庭
语  言 英语 / 汉语普通话 / 粤语
上映日期 2011-09-05(威尼斯电影节) / 2012-03-08(中国大陆) / 2012-03-09(中国香港)
IMDb评分  7.6/10 from 5060 users
IMDb链接  https://www.imdb.com/title/tt2008006
豆瓣评分 8.3/10 from 255046 users
豆瓣链接 https://movie.douban.com/subject/5977835/
片  长 118分钟
导  演 许鞍华 Ann Hui
编  剧 陈淑贤 Susan Chan / 李恩霖 Roger Lee
主  演 叶德娴 Deannie Yip
       刘德华 Andy Lau
       秦海璐 Hailu Qin
       秦沛 Paul Chun
       黄秋生 Anthony Wong Chau-Sang
       王馥荔 Fuli Wang
       朱慧敏 Queenie Chu
       江美仪 Elena Kong
       罗兰 Lan Law
       谭炳文 Ping-Man Tam
       梁天 Tin Leung
       宫雪花 Xuehua Gong
       徐克 Hark Tsui
       洪金宝 Sammo Hung Kam-Bo
       于冬 Dong Yu
       宁浩 Hao Ning
       杜汶泽 Chapman To


标  签 香港 | 温情 | 人生 | 文艺 | 动人 | 剧情 | 2011 | 女性

简  介  

  桃姐(叶德娴 饰)是伺候了李家数十年的老仆人,把第二代的少爷罗杰(刘德华 饰)抚养成人。罗杰处置电影制片人,五十多岁了仍然单身,而桃姐也继续照顾罗杰,成为习惯……一日,桃姐如常到市井买菜,回居所煲汤、做好满桌的饭菜,在期待从本地出差回家的罗杰,桃姐看着窗外的街景打发时候 ,不知不觉间却竟昏迷在地上……桃姐醒来时发现自己身在医院,桃姐是中风了!一边手臂不能活动自若,必须操纵物理治疗只管恢新活泼才能。
  罗杰在百忙工作中为桃姐找合适老人院,时代巧遇昔日电影拍摄熟悉的草蜢哥(黄秋生 饰),桃姐出院来到老人院,情况陌生,院友怪异,桃姐强装镇静。罗杰工余常到老人院探桃姐,主仆闲话家常一如母子,仍连结相互嘲弄讥讽习惯,桃姐嘴硬心甜,院友恋慕。
  罗杰特地带桃姐加入电影首映礼,桃姐初次决心打扮预备,取收藏已久的宝贵衣服动身赴会;首映礼上桃姐大开眼界,更终有机遇面到电影明星,桃姐感慨自己有生之年已然无憾……

获奖情况  

  第68届威尼斯电影节(2011)
  金狮奖(提名) 许鞍华
  沃尔皮杯 最好女演员 叶德娴
  天主教文化出格声誉奖 许鞍华
  吉亚尼·阿斯特雷奖 许鞍华
  纳萨雷诺塔代伊奖 许鞍华
  同等机遇奖 许鞍华

  第48届台北金马影展(2011)
  金马奖 最好剧情片(提名)
  金马奖 最好导演 许鞍华
  金马奖 最好男配角 刘德华
  金马奖 最好女配角 叶德娴
  金马奖 最好原著剧本(提名) 陈淑贤
  金马奖 最好剪辑(提名) 邝志良

  第31届香港电影金像奖(2012)
  最好电影
  最好导演 许鞍华
  最好编剧 陈淑贤
  最好男配角 刘德华
  最好女配角 叶德娴
  最好男配角(提名) 秦沛
  最好女配角(提名) 秦海璐
  最好摄影(提名) 余力为

  第29届中国电影金鸡奖(2013)
  最好故事片(提名)
  最好原创剧本(提名) 陈淑贤

  第15届中国电影华表奖(2013)
  优异境外华裔女演员奖 叶德娴
  优异合拍片奖

  第6届亚洲电影大奖(2012)
  我最爱好的男女配角 我最爱好的男配角 刘德华
  我最爱好的男女配角 我最爱好的女配角(提名) 叶德娴
  最好男配角(提名) 刘德华
  最好女配角 叶德娴

  第33届波士顿影评人协会奖(2012)
  最好女配角(提名) 叶德娴

  第12届华语电影传媒大奖(2012)
  百祖传媒年度致敬电影
  最好电影(提名)
  最好导演(提名) 许鞍华
  最好男配角(提名) 刘德华
  最好女配角 叶德娴
  最好编剧(提名) 陈淑贤

  第2届豆瓣电影鑫像奖(2012)
  鑫豆单元 最好影片(华语)(提名)
  鑫豆单元 最好女演员(华语) 叶德娴
  1. Video
  2. ID                                       : 1
  3. Format                                   : AVC
  4. Format/Info                              : Advanced Video Codec
  5. Format profile                           : [email protected]
  6. Format settings                          : CABAC / 4 Ref Frames
  7. Format settings, CABAC                   : Yes
  8. Format settings, Reference frames        : 4 frames
  9. Muxing mode                              : Header stripping
  10. Codec ID                                 : V_MPEG4/ISO/AVC
  11. Duration                                 : 1 h 58 min
  12. Bit rate                                 : 8 624 kb/s
  13. Width                                    : 1 920 pixels
  14. Height                                   : 1 040 pixels
  15. Display aspect ratio                     : 1.85:1
  16. Frame rate mode                          : Constant
  17. Frame rate                               : 24.000 FPS
  18. Color space                              : YUV
  19. Chroma subsampling                       : 4:2:0
  20. Bit depth                                : 8 bits
  21. Scan type                                : Progressive
  22. Bits/(Pixel*Frame)                       : 0.180
  23. Stream size                              : 6.97 GiB (91%)
  24. Writing library                          : x264 core 125 r2200 999b753
  25. Encoding settings                        : cabac=1 / ref=4 / deblock=1:0:0 / analyse=0x3:0x113 / me=umh / subme=7 / psy=1 / psy_rd=1.00:0.00 / mixed_ref=1 / me_range=16 / chroma_me=1 / trellis=1 / 8x8dct=1 / cqm=0 / deadzone=21,11 / fast_pskip=0 / chroma_qp_offset=-2 / threads=12 / lookahead_threads=2 / sliced_threads=0 / nr=0 / decimate=1 / interlaced=0 / bluray_compat=0 / constrained_intra=0 / bframes=3 / b_pyramid=2 / b_adapt=1 / b_bias=0 / direct=1 / weightb=1 / open_gop=0 / weightp=2 / keyint=250 / keyint_min=23 / scenecut=40 / intra_refresh=0 / rc_lookahead=40 / rc=2pass / mbtree=1 / bitrate=8624 / ratetol=1.0 / qcomp=0.60 / qpmin=0 / qpmax=69 / qpstep=4 / cplxblur=20.0 / qblur=0.5 / ip_ratio=1.40 / aq=1:1.00
  26. Language                                 : English
  27. Default                                  : Yes
  28. Forced                                   : No

  29. Audio
  30. ID                                       : 2
  31. Format                                   : AC-3
  32. Format/Info                              : Audio Coding 3
  33. Commercial name                          : Dolby Digital
  34. Muxing mode                              : Header stripping
  35. Codec ID                                 : A_AC3
  36. Duration                                 : 1 h 58 min
  37. Bit rate mode                            : Constant
  38. Bit rate                                 : 640 kb/s
  39. Channel(s)                               : 6 channels
  40. Channel layout                           : L R C LFE Ls Rs
  41. Sampling rate                            : 48.0 kHz
  42. Frame rate                               : 31.250 FPS (1536 SPF)
  43. Bit depth                                : 16 bits
  44. Compression mode                         : Lossy
  45. Stream size                              : 541 MiB (7%)
  46. Service kind                             : Complete Main
  47. Language: Chinese
  48. Default                                  : Yes
  49. Forced                                   : No

  50. Text
  51. ID                                       : 3
  52. Format                                   : UTF-8
  53. Codec ID                                 : S_TEXT/UTF8
  54. Codec ID/Info                            : UTF-8 Plain Text
  55. Language                                 : English
  56. Default                                  : Yes
  57. Forced                                   : No
复制代码

桃姐 A.Simple.Life.2011.1080p.BluRay.x264-MELiTE 7.65GB-2.png 桃姐 A.Simple.Life.2011.1080p.BluRay.x264-MELiTE 7.65GB-3.png 桃姐 A.Simple.Life.2011.1080p.BluRay.x264-MELiTE 7.65GB-4.png








回复

使用道具 举报

蓝光币
636
发表于 2020-4-30 13:07:54 | 显示全部楼层
谢谢楼主无私分享。
回复 支持 反对

使用道具 举报

蓝光币
59
发表于 2021-7-25 16:57:03 | 显示全部楼层
东西我收了!谢谢楼主!蓝光电影网真好!
回复 支持 反对

使用道具 举报

懒得打字嘛,点击右侧快捷回复 【右侧内容,后台自定义】
您需要登录后才可以回帖 登录 | 立即加入

本版积分规则

Archiver|小黑屋| 蓝光电影网 |网站地图

Copyright © 2021 Comsenz Inc. Powered by 蓝光电影网

蓝光电影网

本站内容由用户自主分享和转载自互联网,转载目的在于传递更多信息,并不代表本网赞同其观点和对其真实性负责。

如有侵权、违反国家法律政策行为,请联系我们,我们会第一时间及时清除和处理!

举报反馈邮箱:[email protected]

快速回复 返回顶部 返回列表