找回密码

蓝光电影网

查看: 458|回复: 2

[纪录] 水花四溅 A.Bigger.Splash.1973.1080p.BluRay.x264-SONiDO 6.56GB

[复制链接]
蓝光币
515
发表于 2020-4-30 11:07:02 | 显示全部楼层 |阅读模式
水花四溅 A.Bigger.Splash.1973.1080p.BluRay.x264-SONiDO 6.56GB-1.png

译  名 水花四溅
片  名 A Bigger Splash
年  代 1973
产  地 英国
类  别 记载片
语  言 英语
上映日期 1974-10-05
IMDb评分  5.6/10 from 349 users
IMDb链接  https://www.imdb.com/title/tt0071219
豆瓣评分 7.6/10 from 168 users
豆瓣链接 https://movie.douban.com/subject/2084419/
片  长 USA: 106 分钟
导  演 Jack Hazan
编  剧 Jack Hazan / David Mingay
主  演 David Hockney
       Peter Schlesinger


标  签 记载片 | 艺术 | 英国 | hockney | 列传 | 同道 | 文艺 | 同性

简  介  

  现画家大卫-霍克尼(David Hockney)艺术创作和豪情生活的1975年的记载片《水花四溅》(A Bigger Splash)由杰克-哈赞(Jack Hazan)执导的《水花四溅》,用摄影镜头实在记录了1970年月早期已经成为国际著名绘画艺术家的霍克尼的创作、豪情生活以及从英国前往美国的进程。影片还连系了实在记录和电影创作的形式,显现霍克尼与男友的豪情关系、和两人后来的分手对霍克尼艺术创作的影响。
  《水花四溅》曾获1974年瑞士洛迦诺国际电影节最好导演奖。据爱白网的材料,对于身为艺术家的霍克尼的创作与其豪情生活之间的关系,本片中还有大胆的人体显现和同性密切镜头,这类表达在三十多年前曾是本片激发争议的焦点。
  现年70岁的霍克尼是公然的同性恋者,他的作品和创作活动现在仍然遭到关注。
  1. Video
  2. ID                                       : 1
  3. Format                                   : AVC
  4. Format/Info                              : Advanced Video Codec
  5. Format profile                           : [email protected]
  6. Format settings                          : CABAC / 4 Ref Frames
  7. Format settings, CABAC                   : Yes
  8. Format settings, Reference frames        : 4 frames
  9. Codec ID                                 : V_MPEG4/ISO/AVC
  10. Duration                                 : 1 h 45 min
  11. Bit rate                                 : 8 297 kb/s
  12. Width                                    : 1 920 pixels
  13. Height                                   : 1 040 pixels
  14. Display aspect ratio                     : 1.85:1
  15. Frame rate mode                          : Constant
  16. Frame rate                               : 23.976 (23976/1000/189150) FPS
  17. Color space                              : YUV
  18. Chroma subsampling                       : 4:2:0
  19. Bit depth                                : 8 bits
  20. Scan type                                : Progressive
  21. Bits/(Pixel*Frame)                       : 0.173
  22. Stream size                              : 5.96 GiB (91%)
  23. Writing library                          : x264 core 122 r2184 5c85e0a
  24. Encoding settings                        : cabac=1 / ref=4 / deblock=1:0:0 / analyse=0x3:0x133 / me=umh / subme=7 / psy=1 / psy_rd=1.00:0.00 / mixed_ref=1 / me_range=16 / chroma_me=1 / trellis=1 / 8x8dct=1 / cqm=0 / deadzone=21,11 / fast_pskip=0 / chroma_qp_offset=-2 / threads=12 / sliced_threads=0 / nr=0 / decimate=1 / interlaced=0 / bluray_compat=0 / constrained_intra=0 / bframes=3 / b_pyramid=2 / b_adapt=2 / b_bias=0 / direct=3 / weightb=1 / open_gop=0 / weightp=2 / keyint=250 / keyint_min=23 / scenecut=40 / intra_refresh=0 / rc_lookahead=50 / rc=2pass / mbtree=1 / bitrate=8297 / ratetol=1.0 / qcomp=0.60 / qpmin=0 / qpmax=69 / qpstep=4 / cplxblur=20.0 / qblur=0.5 / ip_ratio=1.40 / aq=1:1.00
  25. Language                                 : English
  26. Default                                  : Yes
  27. Forced                                   : No

  28. Audio
  29. ID                                       : 2
  30. Format                                   : AC-3
  31. Format/Info                              : Audio Coding 3
  32. Commercial name                          : Dolby Digital
  33. Codec ID                                 : A_AC3
  34. Duration                                 : 1 h 45 min
  35. Bit rate mode                            : Constant
  36. Bit rate                                 : 640 kb/s
  37. Channel(s)                               : 2 channels
  38. Channel layout                           : L R
  39. Sampling rate                            : 48.0 kHz
  40. Frame rate                               : 31.250 FPS (1536 SPF)
  41. Bit depth                                : 16 bits
  42. Compression mode                         : Lossy
  43. Stream size                              : 481 MiB (7%)
  44. Language                                 : English
  45. Service kind                             : Complete Main
  46. Default                                  : Yes
  47. Forced                                   : No
复制代码

水花四溅 A.Bigger.Splash.1973.1080p.BluRay.x264-SONiDO 6.56GB-2.png 水花四溅 A.Bigger.Splash.1973.1080p.BluRay.x264-SONiDO 6.56GB-3.png 水花四溅 A.Bigger.Splash.1973.1080p.BluRay.x264-SONiDO 6.56GB-4.png







回复

使用道具 举报

蓝光币
1476
发表于 2020-4-30 12:01:38 | 显示全部楼层
太好啦&萬分感謝版主的無私發佈分享%
回复 支持 反对

使用道具 举报

蓝光币
729
发表于 2020-4-30 21:09:41 | 显示全部楼层
谢谢楼主分享
回复 支持 反对

使用道具 举报

懒得打字嘛,点击右侧快捷回复 【右侧内容,后台自定义】
您需要登录后才可以回帖 登录 | 立即加入

本版积分规则

Archiver|小黑屋| 蓝光电影网 |网站地图

Copyright © 2021 Comsenz Inc. Powered by 蓝光电影网

蓝光电影网

本站内容由用户自主分享和转载自互联网,转载目的在于传递更多信息,并不代表本网赞同其观点和对其真实性负责。

如有侵权、违反国家法律政策行为,请联系我们,我们会第一时间及时清除和处理!

举报反馈邮箱:[email protected]

快速回复 返回顶部 返回列表