找回密码

蓝光电影网

查看: 1523|回复: 7

[8bit.SDR] 阿基拉 Akira.1988.JAPANESE.2160p.JPN.BluRay.x264.8bit.SDR.TrueHD.5.1-SWTYBLZ 29.85GB

[复制链接]
蓝光币
515
发表于 2020-4-30 11:12:05 | 显示全部楼层 |阅读模式
阿基拉 Akira.1988.JAPANESE.2160p.JPN.BluRay.x264.8bit.SDR.TrueHD.5.1-SWTYBLZ 29.85GB-1.png

译  名 阿基拉 / アキラ / 亚基拉 / 亚辉罗 / 光亮战士阿基拉
片  名 Akira
年  代 1988
产  地 日本
类  别 行动 / 科幻 / 动画
语  言 日语
上映日期 1988-07-16(日本)
IMDb评分  8.0/10 from 154755 users
IMDb链接  https://www.imdb.com/title/tt0094625
豆瓣评分 8.5/10 from 45273 users
豆瓣链接 https://movie.douban.com/subject/1302770/
片  长 124分钟
导  演 大友克洋 Katsuhiro ?tomo
编  剧 大友克洋 Katsuhiro ?tomo / 桥本以葬 Iz? Hashimoto
主  演 岩田光央 Mitsuo Iwata
       佐佐木望 Nozomu Sasaki
       小山茉美 Mami Koyama
       玄田哲章 Tessh? Genda
       大竹宏 Hiroshi ?take
       北村弘一 K?ichi Kitamura
       池水通洋 Michihiro Ikemizu
       渊崎由里子 Yuriko Fuchizaki
       大仓正章 Ookura Masaaki
       荒川太郎 Arakawa Tarou
       草尾毅 Takeshi Kusao
       田中和实 Kazumi Tanaka
       加藤将之 Masayuki Kat?
       秋元羊介 Y?suke Akimoto
       平野君子 Hirano Masato
       岸野幸正 Kishino Yukimasa
       中村龙彦
       神藤一弘
       伊藤福惠
       二又一成 Issei Futamata
       盐屋浩三 K?z? Shioya
       小林通孝 Kobayashi Michitaka
       梅津秀行 Hideyuki Umezu
       稻垣悟 Inagaki Satoru
       藤井佳代子 Fujii Kayoko
       丰岛雅美 Masami Toyoshima
       大野由佳
       铃木瑞穗 Mizuho Suzuki
       石田太郎 Tar? Ishida


标  签 大友克洋 | 动画 | 科幻 | 日本 | 日本动画 | Akira | 1988 | 日本电影

简  介  

  1988年7月,关东地域利用新型炸弹停止爆破,第三次天下大战马上爆发。31年后,人类从一片废墟中重建都会,东京湾上建立了庞大城市——新东京。天下恍如要规复到之前的繁华。
  2019年的一个夜晚,新东京郊外的封锁高速公路上,暴走族团体正在公路上飙车。带头的少年,是一位叫做金田的职业高中门生。
  忽然,街上出现了一位希奇的矮个子男人,暴走族少年铁雄为躲避车祸连人带车飞出公路。正当金田要拿那位男人问罪之时,军队驾驶直升飞机感应。将那位矮个男人与铁雄一路收押。
  铁雄进入了一个陌生的地方,这里似乎在处置超才能的研讨。而金田则在盘算若何救援铁雄。二人都不晓得,他们的未来,由于奥秘气力——阿基拉而已经起头了庞大的变化。
  1. Video
  2. ID                                       : 1
  3. Format                                   : AVC
  4. Format/Info                              : Advanced Video Codec
  5. Format profile                           : [email protected]
  6. Format settings                          : CABAC / 5 Ref Frames
  7. Format settings, CABAC                   : Yes
  8. Format settings, Reference frames        : 5 frames
  9. Codec ID                                 : V_MPEG4/ISO/AVC
  10. Duration                                 : 2 h 4 min
  11. Bit rate                                 : 21.5 Mb/s
  12. Width                                    : 3 840 pixels
  13. Height                                   : 2 074 pixels
  14. Display aspect ratio                     : 1.85:1
  15. Frame rate mode                          : Constant
  16. Frame rate                               : 23.976 (24000/1001/189150) FPS
  17. Color space                              : YUV
  18. Chroma subsampling                       : 4:2:0
  19. Bit depth                                : 8 bits
  20. Scan type                                : Progressive
  21. Bits/(Pixel*Frame)                       : 0.113
  22. Stream size                              : 18.8 GiB (63%)
  23. Title                                    : Akira.1988.JAPANESE.2160p.JPN.BluRay.x264.8bit.SDR.TrueHD.5.1-SWTYBLZ
  24. Writing library                          : x264 core 157 r2935 545de2f
  25. Encoding settings                        : cabac=1 / ref=5 / deblock=1:1:1 / analyse=0x3:0x113 / me=umh / subme=10 / psy=1 / psy_rd=0.40:0.00 / mixed_ref=1 / me_range=48 / chroma_me=1 / trellis=2 / 8x8dct=1 / cqm=0 / deadzone=21,11 / fast_pskip=1 / chroma_qp_offset=-2 / threads=48 / lookahead_threads=5 / sliced_threads=0 / nr=0 / decimate=0 / interlaced=0 / bluray_compat=0 / constrained_intra=0 / bframes=5 / b_pyramid=2 / b_adapt=2 / b_bias=0 / direct=3 / weightb=1 / open_gop=0 / weightp=2 / keyint=250 / keyint_min=23 / scenecut=40 / intra_refresh=0 / rc_lookahead=50 / rc=crf / mbtree=1 / crf=16.0 / qcomp=0.60 / qpmin=0 / qpmax=69 / qpstep=4 / ip_ratio=1.40 / aq=1:0.60
  26. Default                                  : Yes
  27. Forced                                   : No

  28. Audio #1
  29. ID                                       : 2
  30. Format                                   : MLP FBA
  31. Format/Info                              : Meridian Lossless Packing FBA
  32. Commercial name                          : Dolby TrueHD
  33. Codec ID                                 : A_TRUEHD
  34. Duration                                 : 2 h 4 min
  35. Bit rate mode                            : Variable
  36. Bit rate                                 : 9 517 kb/s
  37. Maximum bit rate                         : 13.9 Mb/s
  38. Channel(s)                               : 6 channels
  39. Channel layout                           : L R C LFE Ls Rs
  40. Sampling rate                            : 192 kHz
  41. Frame rate                               : 1 200.000 FPS (160 SPF)
  42. Compression mode                         : Lossless
  43. Stream size                              : 8.29 GiB (28%)
  44. Title                                    : Akira.1988.JAPANESE.2160p.JPN.BluRay.x264.8bit.SDR.TrueHD.5.1-SWTYBLZ
  45. Language                                 : Japanese
  46. Default                                  : Yes
  47. Forced                                   : No

  48. Audio #2
  49. ID                                       : 3
  50. Format                                   : AC-3
  51. Format/Info                              : Audio Coding 3
  52. Commercial name                          : Dolby Digital
  53. Codec ID                                 : A_AC3
  54. Duration                                 : 2 h 4 min
  55. Bit rate mode                            : Constant
  56. Bit rate                                 : 640 kb/s
  57. Channel(s)                               : 6 channels
  58. Channel layout                           : L R C LFE Ls Rs
  59. Sampling rate                            : 48.0 kHz
  60. Frame rate                               : 31.250 FPS (1536 SPF)
  61. Bit depth                                : 16 bits
  62. Compression mode                         : Lossy
  63. Stream size                              : 571 MiB (2%)
  64. Title                                    : Akira.1988.JAPANESE.2160p.JPN.BluRay.x264.8bit.SDR.TrueHD.5.1-SWTYBLZ
  65. Language                                 : Japanese
  66. Service kind                             : Complete Main
  67. Default                                  : No
  68. Forced                                   : No

  69. Audio #3
  70. ID                                       : 4
  71. Format                                   : MLP FBA
  72. Format/Info                              : Meridian Lossless Packing FBA
  73. Commercial name                          : Dolby TrueHD
  74. Codec ID                                 : A_TRUEHD
  75. Duration                                 : 2 h 4 min
  76. Bit rate mode                            : Variable
  77. Bit rate                                 : 1 669 kb/s
  78. Maximum bit rate                         : 2 835 kb/s
  79. Channel(s)                               : 6 channels
  80. Channel layout                           : L R C LFE Ls Rs
  81. Sampling rate                            : 48.0 kHz
  82. Frame rate                               : 1 200.000 FPS (40 SPF)
  83. Compression mode                         : Lossless
  84. Stream size                              : 1.45 GiB (5%)
  85. Title                                    : Akira.1988.JAPANESE.2160p.JPN.BluRay.x264.8bit.SDR.TrueHD.5.1-SWTYBLZ
  86. Language                                 : English
  87. Default                                  : No
  88. Forced                                   : No

  89. Audio #4
  90. ID                                       : 5
  91. Format                                   : AC-3
  92. Format/Info                              : Audio Coding 3
  93. Commercial name                          : Dolby Digital
  94. Codec ID                                 : A_AC3
  95. Duration                                 : 2 h 4 min
  96. Bit rate mode                            : Constant
  97. Bit rate                                 : 640 kb/s
  98. Channel(s)                               : 6 channels
  99. Channel layout                           : L R C LFE Ls Rs
  100. Sampling rate                            : 48.0 kHz
  101. Frame rate                               : 31.250 FPS (1536 SPF)
  102. Bit depth                                : 16 bits
  103. Compression mode                         : Lossy
  104. Stream size                              : 571 MiB (2%)
  105. Title                                    : Akira.1988.JAPANESE.2160p.JPN.BluRay.x264.8bit.SDR.TrueHD.5.1-SWTYBLZ
  106. Language                                 : English
  107. Service kind                             : Complete Main
  108. Default                                  : No
  109. Forced                                   : No

  110. Text #1
  111. ID                                       : 6
  112. Format                                   : UTF-8
  113. Codec ID                                 : S_TEXT/UTF8
  114. Codec ID/Info                            : UTF-8 Plain Text
  115. Duration                                 : 1 h 59 min
  116. Bit rate                                 : 46 b/s
  117. Count of elements                        : 1277
  118. Stream size                              : 40.7 KiB (0%)
  119. Title                                    : English-SRT
  120. Language                                 : English
  121. Default                                  : Yes
  122. Forced                                   : No

  123. Text #2
  124. ID                                       : 7
  125. Format                                   : PGS
  126. Muxing mode                              : zlib
  127. Codec ID                                 : S_HDMV/PGS
  128. Codec ID/Info                            : Picture based subtitle format used on BDs/HD-DVDs
  129. Duration                                 : 1 h 59 min
  130. Bit rate                                 : 29.0 kb/s
  131. Count of elements                        : 2521
  132. Stream size                              : 24.7 MiB (0%)
  133. Title                                    : English-PGS
  134. Language                                 : English
  135. Default                                  : No
  136. Forced                                   : No

  137. Text #3
  138. ID                                       : 8
  139. Format                                   : PGS
  140. Muxing mode                              : zlib
  141. Codec ID                                 : S_HDMV/PGS
  142. Codec ID/Info                            : Picture based subtitle format used on BDs/HD-DVDs
  143. Duration                                 : 1 h 58 min
  144. Bit rate                                 : 25.7 kb/s
  145. Count of elements                        : 2788
  146. Stream size                              : 21.9 MiB (0%)
  147. Title                                    : Japanese-PGS
  148. Language                                 : Japanese
  149. Default                                  : No
  150. Forced                                   : No

  151. Menu
  152. 00:00:00.000                             : en:Chapter 01
  153. 00:03:04.309                             : en:Chapter 02
  154. 00:05:25.283                             : en:Chapter 03
  155. 00:06:58.668                             : en:Chapter 04
  156. 00:10:33.507                             : en:Chapter 05
  157. 00:12:11.731                             : en:Chapter 06
  158. 00:16:53.887                             : en:Chapter 07
  159. 00:20:37.444                             : en:Chapter 08
  160. 00:23:45.340                             : en:Chapter 09
  161. 00:26:44.686                             : en:Chapter 10
  162. 00:29:10.081                             : en:Chapter 11
  163. 00:32:10.511                             : en:Chapter 12
  164. 00:35:21.577                             : en:Chapter 13
  165. 00:38:14.250                             : en:Chapter 14
  166. 00:41:23.147                             : en:Chapter 15
  167. 00:45:05.703                             : en:Chapter 16
  168. 00:47:40.107                             : en:Chapter 17
  169. 00:53:16.484                             : en:Chapter 18
  170. 00:57:16.850                             : en:Chapter 19
  171. 01:02:32.206                             : en:Chapter 20
  172. 01:05:30.176                             : en:Chapter 21
  173. 01:08:36.403                             : en:Chapter 22
  174. 01:11:11.058                             : en:Chapter 23
  175. 01:14:30.466                             : en:Chapter 24
  176. 01:18:12.270                             : en:Chapter 25
  177. 01:21:31.428                             : en:Chapter 26
  178. 01:25:57.485                             : en:Chapter 27
  179. 01:30:47.358                             : en:Chapter 28
  180. 01:36:05.509                             : en:Chapter 29
  181. 01:39:38.764                             : en:Chapter 30
  182. 01:41:54.900                             : en:Chapter 31
  183. 01:45:42.336                             : en:Chapter 32
  184. 01:49:21.680                             : en:Chapter 33
  185. 01:52:23.695                             : en:Chapter 34
  186. 01:56:06.960                             : en:Chapter 35
  187. 01:58:24.972                             : en:Chapter 36
  188. 02:00:21.297                             : en:Chapter 37
  189. 02:04:33.466                             : en:Chapter 38
复制代码

阿基拉 Akira.1988.JAPANESE.2160p.JPN.BluRay.x264.8bit.SDR.TrueHD.5.1-SWTYBLZ 29.85GB-2.png 阿基拉 Akira.1988.JAPANESE.2160p.JPN.BluRay.x264.8bit.SDR.TrueHD.5.1-SWTYBLZ 29.85GB-3.png 阿基拉 Akira.1988.JAPANESE.2160p.JPN.BluRay.x264.8bit.SDR.TrueHD.5.1-SWTYBLZ 29.85GB-4.png 阿基拉 Akira.1988.JAPANESE.2160p.JPN.BluRay.x264.8bit.SDR.TrueHD.5.1-SWTYBLZ 29.85GB-5.png 阿基拉 Akira.1988.JAPANESE.2160p.JPN.BluRay.x264.8bit.SDR.TrueHD.5.1-SWTYBLZ 29.85GB-6.png 阿基拉 Akira.1988.JAPANESE.2160p.JPN.BluRay.x264.8bit.SDR.TrueHD.5.1-SWTYBLZ 29.85GB-7.png 阿基拉 Akira.1988.JAPANESE.2160p.JPN.BluRay.x264.8bit.SDR.TrueHD.5.1-SWTYBLZ 29.85GB-8.png







回复

使用道具 举报

蓝光币
198
发表于 2020-4-30 16:09:28 | 显示全部楼层
u平平平平平平平平平噗噗噗噗噗
回复 支持 反对

使用道具 举报

蓝光币
232
发表于 2020-4-30 17:10:20 | 显示全部楼层

楼主太厉害了!楼主,电影应该很好看我觉得蓝光电影网真是个好地方!
回复 支持 反对

使用道具 举报

蓝光币
1293
发表于 2020-4-30 18:23:36 | 显示全部楼层

这东西我收了!谢谢楼主!蓝光电影网真好!
回复 支持 反对

使用道具 举报

蓝光币
283
发表于 2020-4-30 20:34:38 | 显示全部楼层

楼主太厉害了!楼主,电影应该很好看我觉得蓝光电影网真是个好地方!
回复 支持 反对

使用道具 举报

蓝光币
828
发表于 2020-4-30 22:45:30 | 显示全部楼层
楼主发贴辛苦了,谢谢楼主分享!我觉得蓝光电影网是注册对了!
回复 支持 反对

使用道具 举报

蓝光币
641
发表于 2020-5-1 01:58:38 | 显示全部楼层

感谢楼主的无私分享!要想蓝光电影网好 就靠你我他
回复 支持 反对

使用道具 举报

蓝光币
1293
发表于 2020-5-1 18:57:18 | 显示全部楼层

这东西我收了!谢谢楼主!蓝光电影网真好!
回复 支持 反对

使用道具 举报

懒得打字嘛,点击右侧快捷回复 【右侧内容,后台自定义】
您需要登录后才可以回帖 登录 | 立即加入

本版积分规则

Archiver|小黑屋| 蓝光电影网 |网站地图

Copyright © 2021 Comsenz Inc. Powered by 蓝光电影网

蓝光电影网

本站内容由用户自主分享和转载自互联网,转载目的在于传递更多信息,并不代表本网赞同其观点和对其真实性负责。

如有侵权、违反国家法律政策行为,请联系我们,我们会第一时间及时清除和处理!

举报反馈邮箱:[email protected]

快速回复 返回顶部 返回列表