找回密码

蓝光电影网

查看: 1247|回复: 9

[REMUX.HEVC] 守望者/保卫奇侠 Watchmen.2009.The.Ultimate.Cut.2160p.BluRay.REMUX.HEVC.DTS-HD.MA.TrueHD.5.1-FGT 97.32GB

[复制链接]
蓝光币
511
发表于 2020-4-30 18:30:46 | 显示全部楼层 |阅读模式
守望者/保卫奇侠 Watchmen.2009.The.Ultimate.Cut.2160p.BluRay.REMUX.HEVC.DTS-HD.MA.TrueHD.5.1-FGT 97.32GB-1.png

译  名 守望者 / 保卫奇侠(港) / 保护者(台)
片  名 Watchmen
年  代 2009
产  地 美国
类  别 行动 / 科幻 / 悬疑
语  言 英语
上映日期 2009-03-06(美国)
IMDb评分  7.6/10 from 483053 users
IMDb链接  https://www.imdb.com/title/tt0409459
豆瓣评分 8.4/10 from 130078 users
豆瓣链接 https://movie.douban.com/subject/1972698/
片  长 162分钟
导  演 扎克·施奈德 Zack Snyder
编  剧 大卫·海特 David Hayter / Alex Tse / 戴夫·吉布森 Dave Gibbons / 艾伦·摩尔 Alan Moore
主  演 帕特里克·威尔森 Patrick Wilson
       卡拉·古奇诺 Carla Gugino
       比利·克鲁德普 Billy Crudup
       玛琳·阿克曼 Malin Akerman
       杰弗里·迪恩·摩根 Jeffrey Dean Morgan
       马修·古迪 Matthew Goode
       杰基·厄尔·哈利 Jackie Earle Haley
       马特·弗里沃 Matt Frewer
       史蒂芬·麦克哈蒂 Stephen McHattie
       劳拉·门内尔 Laura Mennell
       詹姆斯·M.康纳 James M. Connor


标  签 科幻 | 漫画改编 | 美国 | 守望者 | DC | 行动 | 暴力 | 美国电影

简  介  

  由于邪恶势力肆意舒展,一群具有超群气力的正义之士自告奋勇,他们戴着面具,身着奇装异服,与各类好人展开较劲。未几,他们的豪杰业绩经过媒体传遍全国,美圆钞票、丝绸鬼魂、罗夏、城市队长等超级豪杰的名字广为传布,他们更介入到大巨细小的严重事务当中,也因各自的性情蒙受着分歧的命运。可是在20世纪70年月,政府出台的法令致使一部分不愿成为权贵爪牙的豪杰退休,超级豪杰团体由此分化。
  1985年的一天,效力政府的超级豪杰“笑剧演员”爱德华·布莱克(杰弗里·迪恩·摩根 Jeffrey Dean Morgan 饰)被人杀戮。四周流亡的“罗夏”的沃尔特·科瓦奇(杰基·厄尔·哈利 Jackie Earle Haley 饰)意想到有人正向已经的超级豪杰痛下杀手,而这背后隐藏着更大的诡计……

获奖情况  

  第11届美国青少年挑选奖(2009)
  最好行动冒险电影女演员(提名) 玛琳·阿克曼
  1. Video #1
  2. ID                                       : 1
  3. Format                                   : HEVC
  4. Format/Info                              : High Efficiency Video Coding
  5. Format profile                           : Main [email protected]@High
  6. HDR format                               : SMPTE ST 2086, HDR10 compatible
  7. Codec ID                                 : V_MPEGH/ISO/HEVC
  8. Duration                                 : 3 h 35 min
  9. Bit rate                                 : 48.9 Mb/s
  10. Width                                    : 3 840 pixels
  11. Height                                   : 2 160 pixels
  12. Display aspect ratio                     : 16:9
  13. Frame rate mode                          : Constant
  14. Frame rate                               : 23.976 (24000/1001/189150) FPS
  15. Color space                              : YUV
  16. Chroma subsampling                       : 4:2:0 (Type 2)
  17. Bit depth                                : 10 bits
  18. Bits/(Pixel*Frame)                       : 0.246
  19. Stream size                              : 73.6 GiB (76%)
  20. Title                                    : Watchmen.2009.The.Ultimate.Cut.2160p.BluRay.REMUX.HEVC.DTS-HD.MA.TrueHD.5.1-FGT
  21. Language                                 : English
  22. Default                                  : Yes
  23. Forced                                   : No
  24. Color range                              : Limited
  25. Color primaries                          : BT.2020
  26. Transfer characteristics                 : PQ
  27. Matrix coefficients                      : BT.2020 non-constant
  28. Mastering display color primaries        : Display P3
  29. Mastering display luminance              : min: 0.0001 cd/m2, max: 1000 cd/m2

  30. Video #2
  31. ID                                       : 2
  32. Format                                   : HEVC
  33. Format/Info                              : High Efficiency Video Coding
  34. Format profile                           : Main [email protected]@High
  35. HDR format                               : SMPTE ST 2086, HDR10 compatible
  36. Codec ID                                 : V_MPEGH/ISO/HEVC
  37. Duration                                 : 3 h 35 min
  38. Bit rate                                 : 4 959 kb/s
  39. Width                                    : 1 920 pixels
  40. Height                                   : 1 080 pixels
  41. Display aspect ratio                     : 16:9
  42. Frame rate mode                          : Constant
  43. Frame rate                               : 23.976 (24000/1001/189150) FPS
  44. Color space                              : YUV
  45. Chroma subsampling                       : 4:2:0 (Type 2)
  46. Bit depth                                : 10 bits
  47. Bits/(Pixel*Frame)                       : 0.100
  48. Stream size                              : 7.46 GiB (8%)
  49. Title                                    : Watchmen.2009.The.Ultimate.Cut.2160p.BluRay.REMUX.HEVC.DTS-HD.MA.TrueHD.5.1-FGT
  50. Default                                  : No
  51. Forced                                   : No
  52. Color range                              : Limited
  53. Color primaries                          : BT.2020
  54. Transfer characteristics                 : PQ
  55. Matrix coefficients                      : BT.2020 non-constant
  56. Mastering display color primaries        : Display P3
  57. Mastering display luminance              : min: 0.0001 cd/m2, max: 1000 cd/m2

  58. Audio #1
  59. ID                                       : 3
  60. Format                                   : MLP FBA
  61. Format/Info                              : Meridian Lossless Packing FBA
  62. Commercial name                          : Dolby TrueHD
  63. Codec ID                                 : A_TRUEHD
  64. Duration                                 : 3 h 35 min
  65. Bit rate mode                            : Variable
  66. Bit rate                                 : 3 502 kb/s
  67. Maximum bit rate                         : 5 280 kb/s
  68. Channel(s)                               : 6 channels
  69. Channel layout                           : L R C LFE Ls Rs
  70. Sampling rate                            : 48.0 kHz
  71. Frame rate                               : 1 200.000 FPS (40 SPF)
  72. Compression mode                         : Lossless
  73. Stream size                              : 5.27 GiB (5%)
  74. Title                                    : Watchmen.2009.The.Ultimate.Cut.2160p.BluRay.REMUX.HEVC.DTS-HD.MA.TrueHD.5.1-FGT
  75. Language                                 : English
  76. Default                                  : Yes
  77. Forced                                   : No

  78. Audio #2
  79. ID                                       : 4
  80. Format                                   : DTS XLL
  81. Format/Info                              : Digital Theater Systems
  82. Commercial name                          : DTS-HD Master Audio
  83. Codec ID                                 : A_DTS
  84. Duration                                 : 3 h 35 min
  85. Bit rate mode                            : Variable
  86. Bit rate                                 : 3 963 kb/s
  87. Channel(s)                               : 6 channels
  88. Channel layout                           : C L R Ls Rs LFE
  89. Sampling rate                            : 48.0 kHz
  90. Frame rate                               : 93.750 FPS (512 SPF)
  91. Bit depth                                : 24 bits
  92. Compression mode                         : Lossless
  93. Stream size                              : 5.96 GiB (6%)
  94. Title                                    : Watchmen.2009.The.Ultimate.Cut.2160p.BluRay.REMUX.HEVC.DTS-HD.MA.TrueHD.5.1-FGT
  95. Language                                 : English
  96. Default                                  : No
  97. Forced                                   : No

  98. Audio #3
  99. ID                                       : 5
  100. Format                                   : AC-3
  101. Format/Info                              : Audio Coding 3
  102. Commercial name                          : Dolby Digital
  103. Codec ID                                 : A_AC3
  104. Duration                                 : 3 h 35 min
  105. Bit rate mode                            : Constant
  106. Bit rate                                 : 640 kb/s
  107. Channel(s)                               : 6 channels
  108. Channel layout                           : L R C LFE Ls Rs
  109. Sampling rate                            : 48.0 kHz
  110. Frame rate                               : 31.250 FPS (1536 SPF)
  111. Bit depth                                : 16 bits
  112. Compression mode                         : Lossy
  113. Stream size                              : 986 MiB (1%)
  114. Title                                    : Watchmen.2009.The.Ultimate.Cut.2160p.BluRay.REMUX.HEVC.DTS-HD.MA.TrueHD.5.1-FGT
  115. Language                                 : English
  116. Service kind                             : Complete Main
  117. Default                                  : No
  118. Forced                                   : No

  119. Audio #4
  120. ID                                       : 6
  121. Format                                   : AC-3
  122. Format/Info                              : Audio Coding 3
  123. Commercial name                          : Dolby Digital
  124. Codec ID                                 : A_AC3
  125. Duration                                 : 3 h 35 min
  126. Bit rate mode                            : Constant
  127. Bit rate                                 : 640 kb/s
  128. Channel(s)                               : 6 channels
  129. Channel layout                           : L R C LFE Ls Rs
  130. Sampling rate                            : 48.0 kHz
  131. Frame rate                               : 31.250 FPS (1536 SPF)
  132. Bit depth                                : 16 bits
  133. Compression mode                         : Lossy
  134. Stream size                              : 986 MiB (1%)
  135. Title                                    : Watchmen.2009.The.Ultimate.Cut.2160p.BluRay.REMUX.HEVC.DTS-HD.MA.TrueHD.5.1-FGT
  136. Language                                 : English
  137. Service kind                             : Complete Main
  138. Default                                  : No
  139. Forced                                   : No

  140. Audio #5
  141. ID                                       : 7
  142. Format                                   : AC-3
  143. Format/Info                              : Audio Coding 3
  144. Commercial name                          : Dolby Digital
  145. Codec ID                                 : A_AC3
  146. Duration                                 : 3 h 35 min
  147. Bit rate mode                            : Constant
  148. Bit rate                                 : 640 kb/s
  149. Channel(s)                               : 6 channels
  150. Channel layout                           : L R C LFE Ls Rs
  151. Sampling rate                            : 48.0 kHz
  152. Frame rate                               : 31.250 FPS (1536 SPF)
  153. Bit depth                                : 16 bits
  154. Compression mode                         : Lossy
  155. Stream size                              : 986 MiB (1%)
  156. Title                                    : Watchmen.2009.The.Ultimate.Cut.2160p.BluRay.REMUX.HEVC.DTS-HD.MA.TrueHD.5.1-FGT
  157. Language                                 : German
  158. Service kind                             : Complete Main
  159. Default                                  : No
  160. Forced                                   : No

  161. Audio #6
  162. ID                                       : 8
  163. Format                                   : AC-3
  164. Format/Info                              : Audio Coding 3
  165. Commercial name                          : Dolby Digital
  166. Codec ID                                 : A_AC3
  167. Duration                                 : 3 h 35 min
  168. Bit rate mode                            : Constant
  169. Bit rate                                 : 640 kb/s
  170. Channel(s)                               : 6 channels
  171. Channel layout                           : L R C LFE Ls Rs
  172. Sampling rate                            : 48.0 kHz
  173. Frame rate                               : 31.250 FPS (1536 SPF)
  174. Bit depth                                : 16 bits
  175. Compression mode                         : Lossy
  176. Stream size                              : 986 MiB (1%)
  177. Title                                    : Watchmen.2009.The.Ultimate.Cut.2160p.BluRay.REMUX.HEVC.DTS-HD.MA.TrueHD.5.1-FGT
  178. Language                                 : French
  179. Service kind                             : Complete Main
  180. Default                                  : No
  181. Forced                                   : No

  182. Audio #7
  183. ID                                       : 9
  184. Format                                   : AC-3
  185. Format/Info                              : Audio Coding 3
  186. Commercial name                          : Dolby Digital
  187. Codec ID                                 : A_AC3
  188. Duration                                 : 3 h 35 min
  189. Bit rate mode                            : Constant
  190. Bit rate                                 : 640 kb/s
  191. Channel(s)                               : 6 channels
  192. Channel layout                           : L R C LFE Ls Rs
  193. Sampling rate                            : 48.0 kHz
  194. Frame rate                               : 31.250 FPS (1536 SPF)
  195. Bit depth                                : 16 bits
  196. Compression mode                         : Lossy
  197. Stream size                              : 986 MiB (1%)
  198. Title                                    : Watchmen.2009.The.Ultimate.Cut.2160p.BluRay.REMUX.HEVC.DTS-HD.MA.TrueHD.5.1-FGT
  199. Language                                 : Japanese
  200. Service kind                             : Complete Main
  201. Default                                  : No
  202. Forced                                   : No

  203. Text #1
  204. ID                                       : 10
  205. Format                                   : UTF-8
  206. Codec ID                                 : S_TEXT/UTF8
  207. Codec ID/Info                            : UTF-8 Plain Text
  208. Duration                                 : 3 h 24 min
  209. Bit rate                                 : 51 b/s
  210. Count of elements                        : 2342
  211. Stream size                              : 76.6 KiB (0%)
  212. Title                                    : English-SRT
  213. Language                                 : English
  214. Default                                  : Yes
  215. Forced                                   : No

  216. Text #2
  217. ID                                       : 11
  218. Format                                   : PGS
  219. Muxing mode                              : zlib
  220. Codec ID                                 : S_HDMV/PGS
  221. Codec ID/Info                            : Picture based subtitle format used on BDs/HD-DVDs
  222. Duration                                 : 3 h 24 min
  223. Bit rate                                 : 32.2 kb/s
  224. Count of elements                        : 4704
  225. Stream size                              : 47.1 MiB (0%)
  226. Title                                    : English-PGS
  227. Language                                 : English
  228. Default                                  : No
  229. Forced                                   : No

  230. Text #3
  231. ID                                       : 12
  232. Format                                   : PGS
  233. Muxing mode                              : zlib
  234. Codec ID                                 : S_HDMV/PGS
  235. Codec ID/Info                            : Picture based subtitle format used on BDs/HD-DVDs
  236. Duration                                 : 3 h 24 min
  237. Bit rate                                 : 35.6 kb/s
  238. Count of elements                        : 5184
  239. Stream size                              : 52.0 MiB (0%)
  240. Title                                    : English-SDH-PGS
  241. Language                                 : English
  242. Default                                  : No
  243. Forced                                   : No

  244. Text #4
  245. ID                                       : 13
  246. Format                                   : PGS
  247. Muxing mode                              : zlib
  248. Codec ID                                 : S_HDMV/PGS
  249. Codec ID/Info                            : Picture based subtitle format used on BDs/HD-DVDs
  250. Duration                                 : 3 h 34 min
  251. Bit rate                                 : 29.5 kb/s
  252. Count of elements                        : 4800
  253. Stream size                              : 45.4 MiB (0%)
  254. Title                                    : Danish-PGS
  255. Language                                 : Danish
  256. Default                                  : No
  257. Forced                                   : No

  258. Text #5
  259. ID                                       : 14
  260. Format                                   : PGS
  261. Muxing mode                              : zlib
  262. Codec ID                                 : S_HDMV/PGS
  263. Codec ID/Info                            : Picture based subtitle format used on BDs/HD-DVDs
  264. Duration                                 : 3 h 34 min
  265. Bit rate                                 : 31.1 kb/s
  266. Count of elements                        : 4830
  267. Stream size                              : 47.8 MiB (0%)
  268. Title                                    : German-PGS
  269. Language                                 : German
  270. Default                                  : No
  271. Forced                                   : No

  272. Text #6
  273. ID                                       : 15
  274. Format                                   : PGS
  275. Muxing mode                              : zlib
  276. Codec ID                                 : S_HDMV/PGS
  277. Codec ID/Info                            : Picture based subtitle format used on BDs/HD-DVDs
  278. Duration                                 : 3 h 18 min
  279. Bit rate                                 : 590 b/s
  280. Count of elements                        : 80
  281. Stream size                              : 857 KiB (0%)
  282. Title                                    : German-FORCED-PGS
  283. Language                                 : German
  284. Default                                  : No
  285. Forced                                   : No

  286. Text #7
  287. ID                                       : 16
  288. Format                                   : PGS
  289. Muxing mode                              : zlib
  290. Codec ID                                 : S_HDMV/PGS
  291. Codec ID/Info                            : Picture based subtitle format used on BDs/HD-DVDs
  292. Duration                                 : 3 h 34 min
  293. Bit rate                                 : 28.9 kb/s
  294. Count of elements                        : 4650
  295. Stream size                              : 44.4 MiB (0%)
  296. Title                                    : French-PGS
  297. Language                                 : French
  298. Default                                  : No
  299. Forced                                   : No

  300. Text #8
  301. ID                                       : 17
  302. Format                                   : PGS
  303. Muxing mode                              : zlib
  304. Codec ID                                 : S_HDMV/PGS
  305. Codec ID/Info                            : Picture based subtitle format used on BDs/HD-DVDs
  306. Duration                                 : 3 h 16 min
  307. Bit rate                                 : 597 b/s
  308. Count of elements                        : 82
  309. Stream size                              : 862 KiB (0%)
  310. Title                                    : French-FORCED-PGS
  311. Language                                 : French
  312. Default                                  : No
  313. Forced                                   : No

  314. Text #9
  315. ID                                       : 18
  316. Format                                   : PGS
  317. Muxing mode                              : zlib
  318. Codec ID                                 : S_HDMV/PGS
  319. Codec ID/Info                            : Picture based subtitle format used on BDs/HD-DVDs
  320. Duration                                 : 3 h 24 min
  321. Bit rate                                 : 25.9 kb/s
  322. Count of elements                        : 4498
  323. Stream size                              : 37.9 MiB (0%)
  324. Title                                    : Japanese-PGS
  325. Language                                 : Japanese
  326. Default                                  : No
  327. Forced                                   : No

  328. Text #10
  329. ID                                       : 19
  330. Format                                   : PGS
  331. Muxing mode                              : zlib
  332. Codec ID                                 : S_HDMV/PGS
  333. Codec ID/Info                            : Picture based subtitle format used on BDs/HD-DVDs
  334. Duration                                 : 3 h 34 min
  335. Bit rate                                 : 27.7 kb/s
  336. Count of elements                        : 4094
  337. Stream size                              : 42.5 MiB (0%)
  338. Title                                    : Dutch-PGS
  339. Language                                 : Dutch
  340. Default                                  : No
  341. Forced                                   : No

  342. Text #11
  343. ID                                       : 20
  344. Format                                   : PGS
  345. Muxing mode                              : zlib
  346. Codec ID                                 : S_HDMV/PGS
  347. Codec ID/Info                            : Picture based subtitle format used on BDs/HD-DVDs
  348. Duration                                 : 3 h 34 min
  349. Bit rate                                 : 27.6 kb/s
  350. Count of elements                        : 4818
  351. Stream size                              : 42.4 MiB (0%)
  352. Title                                    : Norwegian-PGS
  353. Language                                 : Norwegian
  354. Default                                  : No
  355. Forced                                   : No

  356. Text #12
  357. ID                                       : 21
  358. Format                                   : PGS
  359. Muxing mode                              : zlib
  360. Codec ID                                 : S_HDMV/PGS
  361. Codec ID/Info                            : Picture based subtitle format used on BDs/HD-DVDs
  362. Duration                                 : 3 h 34 min
  363. Bit rate                                 : 27.9 kb/s
  364. Count of elements                        : 4822
  365. Stream size                              : 42.9 MiB (0%)
  366. Title                                    : Finnish-PGS
  367. Language                                 : Finnish
  368. Default                                  : No
  369. Forced                                   : No

  370. Text #13
  371. ID                                       : 22
  372. Format                                   : PGS
  373. Muxing mode                              : zlib
  374. Codec ID                                 : S_HDMV/PGS
  375. Codec ID/Info                            : Picture based subtitle format used on BDs/HD-DVDs
  376. Duration                                 : 3 h 34 min
  377. Bit rate                                 : 30.9 kb/s
  378. Count of elements                        : 4820
  379. Stream size                              : 47.5 MiB (0%)
  380. Title                                    : Swedish-PGS
  381. Language                                 : Swedish
  382. Default                                  : No
  383. Forced                                   : No

  384. Text #14
  385. ID                                       : 23
  386. Format                                   : PGS
  387. Muxing mode                              : zlib
  388. Codec ID                                 : S_HDMV/PGS
  389. Codec ID/Info                            : Picture based subtitle format used on BDs/HD-DVDs
  390. Duration                                 : 3 h 16 min
  391. Bit rate                                 : 539 b/s
  392. Count of elements                        : 94
  393. Stream size                              : 778 KiB (0%)
  394. Title                                    : Japanese-FORCED-PGS
  395. Language                                 : Japanese
  396. Default                                  : No
  397. Forced                                   : No

  398. Menu
  399. 00:00:00.000                             : en:Chapter 01
  400. 00:05:41.966                             : en:Chapter 02
  401. 00:11:15.758                             : en:Chapter 03
  402. 00:16:04.964                             : en:Chapter 04
  403. 00:19:05.185                             : en:Chapter 05
  404. 00:23:48.343                             : en:Chapter 06
  405. 00:26:53.028                             : en:Chapter 07
  406. 00:29:43.740                             : en:Chapter 08
  407. 00:34:42.205                             : en:Chapter 09
  408. 00:39:31.118                             : en:Chapter 10
  409. 00:44:05.517                             : en:Chapter 11
  410. 00:48:02.880                             : en:Chapter 12
  411. 00:50:31.319                             : en:Chapter 13
  412. 00:54:44.823                             : en:Chapter 14
  413. 00:59:14.217                             : en:Chapter 15
  414. 01:01:19.258                             : en:Chapter 16
  415. 01:03:36.145                             : en:Chapter 17
  416. 01:06:14.720                             : en:Chapter 18
  417. 01:09:29.081                             : en:Chapter 19
  418. 01:16:10.357                             : en:Chapter 20
  419. 01:20:52.472                             : en:Chapter 21
  420. 01:23:12.612                             : en:Chapter 22
  421. 01:26:43.948                             : en:Chapter 23
  422. 01:28:45.528                             : en:Chapter 24
  423. 01:31:45.875                             : en:Chapter 25
  424. 01:36:50.429                             : en:Chapter 26
  425. 01:41:16.320                             : en:Chapter 27
  426. 01:47:07.838                             : en:Chapter 28
  427. 01:50:40.050                             : en:Chapter 29
  428. 01:54:04.504                             : en:Chapter 30
  429. 01:59:51.559                             : en:Chapter 31
  430. 02:09:06.697                             : en:Chapter 32
  431. 02:13:43.598                             : en:Chapter 33
  432. 02:15:30.747                             : en:Chapter 34
  433. 02:20:34.300                             : en:Chapter 35
  434. 02:23:38.776                             : en:Chapter 36
  435. 02:27:55.241                             : en:Chapter 37
  436. 02:32:50.244                             : en:Chapter 38
  437. 02:37:03.455                             : en:Chapter 39
  438. 02:39:45.617                             : en:Chapter 40
  439. 02:44:40.328                             : en:Chapter 41
  440. 02:49:32.120                             : en:Chapter 42
  441. 02:56:15.690                             : en:Chapter 43
  442. 02:58:58.769                             : en:Chapter 44
  443. 03:04:13.584                             : en:Chapter 45
  444. 03:06:15.455                             : en:Chapter 46
  445. 03:10:27.541                             : en:Chapter 47
  446. 03:14:07.052                             : en:Chapter 48
  447. 03:17:30.463                             : en:Chapter 49
  448. 03:20:01.280                             : en:Chapter 50
  449. 03:24:39.892                             : en:Chapter 51
复制代码

守望者/保卫奇侠 Watchmen.2009.The.Ultimate.Cut.2160p.BluRay.REMUX.HEVC.DTS-HD.MA.TrueHD.5.1-FGT 97.32GB-2.png 守望者/保卫奇侠 Watchmen.2009.The.Ultimate.Cut.2160p.BluRay.REMUX.HEVC.DTS-HD.MA.TrueHD.5.1-FGT 97.32GB-3.png 守望者/保卫奇侠 Watchmen.2009.The.Ultimate.Cut.2160p.BluRay.REMUX.HEVC.DTS-HD.MA.TrueHD.5.1-FGT 97.32GB-4.png







回复

使用道具 举报

蓝光币
636
发表于 2020-5-1 11:39:14 | 显示全部楼层
谢谢楼主无私分享。
回复 支持 反对

使用道具 举报

蓝光币
100
发表于 2020-5-1 17:26:58 | 显示全部楼层
这是重新修复过的版本吗?
回复 支持 反对

使用道具 举报

蓝光币
907
发表于 2020-5-2 20:08:53 | 显示全部楼层
进来看看,应该不错,哈。
回复 支持 反对

使用道具 举报

蓝光币
203
发表于 2020-5-4 18:53:53 | 显示全部楼层

楼主太厉害了!楼主,电影应该很好看我觉得蓝光电影网真是个好地方!
回复 支持 反对

使用道具 举报

懒得打字嘛,点击右侧快捷回复 【右侧内容,后台自定义】
您需要登录后才可以回帖 登录 | 立即加入

本版积分规则

Archiver|小黑屋| 蓝光电影网 |网站地图

Copyright © 2021 Comsenz Inc. Powered by 蓝光电影网

蓝光电影网

本站内容由用户自主分享和转载自互联网,转载目的在于传递更多信息,并不代表本网赞同其观点和对其真实性负责。

如有侵权、违反国家法律政策行为,请联系我们,我们会第一时间及时清除和处理!

举报反馈邮箱:[email protected]

快速回复 返回顶部 返回列表