找回密码

蓝光电影网

查看: 561|回复: 3

[剧情] 撒旦探戈 Satantango.1994.720p.BluRay.x264-USURY 21.14GB

[复制链接]
蓝光币
519
发表于 2020-4-30 18:33:25 | 显示全部楼层 |阅读模式
撒旦探戈 Satantango.1994.720p.BluRay.x264-USURY 21.14GB-1.png

译  名 撒旦探戈 / Satan's Tango
片  名 Sátántangó
年  代 1994
产  地 匈牙利 / 德国 / 瑞士
类  别 剧情 / 悬疑
语  言 匈牙利语
上映日期 1994-04-28
IMDb评分  8.5/10 from 8569 users
IMDb链接  https://www.imdb.com/title/tt0111341
豆瓣评分 9.0/10 from 4930 users
豆瓣链接 https://movie.douban.com/subject/1422088/
片  长 450分钟
导  演 Béla Tarr
编  剧 László Krasznahorkai / Béla Tarr
主  演 Mihály Víg
       Putyi Horváth
       László feLugossy


标  签 匈牙利 | 贝拉·塔尔 | 撒旦探戈 | 匈牙利电影 | 1994 | 历史片 | 悬疑 | 电影

简  介  

  “片长七小时却每一分钟皆排山倒海,令人沉迷。希望在我有生之年,年年都重看一遍。”——苏珊?桑塔格
  收场八分钟的推轨镜头,已道出此片的史诗气势。牛群从牛棚涌出,摄影机隔 着 一列陈旧的农居追踪,风趣的是牠们一路盲今朝冲,一路还试图交配。塔可夫斯基式的画面,却是教人屏息的典型塔尔气概,妙笔一挥预告一个个人农场若何走向衰亡。故事始于传闻已死的骗子重临村子,他要骗走农场支出 ,却给村民认定是大救星。接 着 上演一个悲剧,然后是一个嘲讽故事。全片十二章的结构正如 Krashnahorkai 的原着,启发自六步踏前、六步退后的探戈舞,分轻视角偶然重複同一剧情。农场终极的命运暗喻九十年月初共产主义的破产,同时也是人类配合命运的观照。
  全片最精采两段,一是担任叙事者的医生偷偷记录村民活动,他蹒跚买醉的跟镜,成为最动人的观影存在体验。另一段女孩虐猫,亦写下影史上稀有的伤感时辰。没有故弄玄虚,一种交接故事的坦白,让演员在实在时候存在,让观众随他们的神态同步呼吸,箇中有导演对电影最大的深情与敬意。七个半小时的每个镜头,个个都是不朽──没有想固然的静止,而是自有一种有机的内在节奏。像小津和德莱叶,塔尔深谙长镜头的真理。这是必须去履历的,平生难逢的观影经历。
  1. Video
  2. ID                                       : 1
  3. Format                                   : AVC
  4. Format/Info                              : Advanced Video Codec
  5. Format profile                           : [email protected]
  6. Format settings                          : CABAC / 10 Ref Frames
  7. Format settings, CABAC                   : Yes
  8. Format settings, Reference frames        : 10 frames
  9. Codec ID                                 : V_MPEG4/ISO/AVC
  10. Duration                                 : 7 h 19 min
  11. Bit rate                                 : 6 344 kb/s
  12. Width                                    : 1 148 pixels
  13. Height                                   : 720 pixels
  14. Display aspect ratio                     : 16:10
  15. Frame rate mode                          : Constant
  16. Frame rate                               : 24.000 FPS
  17. Color space                              : YUV
  18. Chroma subsampling                       : 4:2:0
  19. Bit depth                                : 8 bits
  20. Scan type                                : Progressive
  21. Bits/(Pixel*Frame)                       : 0.320
  22. Stream size                              : 19.5 GiB (92%)
  23. Writing library                          : x264 core 159 r2991 1771b55
  24. Encoding settings                        : cabac=1 / ref=10 / deblock=1:-3:-3 / analyse=0x3:0x133 / me=umh / subme=10 / psy=1 / psy_rd=1.20:0.00 / mixed_ref=1 / me_range=24 / chroma_me=1 / trellis=2 / 8x8dct=1 / cqm=0 / deadzone=21,11 / fast_pskip=1 / chroma_qp_offset=-2 / threads=18 / lookahead_threads=3 / sliced_threads=0 / nr=0 / decimate=1 / interlaced=0 / bluray_compat=0 / constrained_intra=0 / bframes=8 / b_pyramid=2 / b_adapt=2 / b_bias=0 / direct=3 / weightb=1 / open_gop=0 / weightp=2 / keyint=250 / keyint_min=24 / scenecut=40 / intra_refresh=0 / rc_lookahead=60 / rc=crf / mbtree=1 / crf=16.0 / qcomp=0.60 / qpmin=0 / qpmax=69 / qpstep=4 / ip_ratio=1.40 / aq=3:0.50
  25. Language                                 : English
  26. Default                                  : Yes
  27. Forced                                   : No
  28. Color range                              : Limited
  29. Matrix coefficients                      : BT.709

  30. Audio
  31. ID                                       : 2
  32. Format                                   : FLAC
  33. Format/Info                              : Free Lossless Audio Codec
  34. Codec ID                                 : A_FLAC
  35. Duration                                 : 7 h 19 min
  36. Bit rate mode                            : Variable
  37. Bit rate                                 : 541 kb/s
  38. Channel(s)                               : 2 channels
  39. Channel layout                           : L R
  40. Sampling rate                            : 48.0 kHz
  41. Frame rate                               : 11.719 FPS (4096 SPF)
  42. Bit depth                                : 16 bits
  43. Compression mode                         : Lossless
  44. Stream size                              : 1.66 GiB (8%)
  45. Writing library                          : libFLAC 1.2.1 (UTC 2007-09-17)
  46. Language                                 : Hungarian
  47. Default                                  : Yes
  48. Forced                                   : No

  49. Text #1
  50. ID                                       : 3
  51. Format                                   : UTF-8
  52. Codec ID                                 : S_TEXT/UTF8
  53. Codec ID/Info                            : UTF-8 Plain Text
  54. Duration                                 : 7 h 18 min
  55. Bit rate                                 : 21 b/s
  56. Count of elements                        : 1915
  57. Stream size                              : 67.8 KiB (0%)
  58. Title                                    : English
  59. Language                                 : English
  60. Default                                  : Yes
  61. Forced                                   : Yes

  62. Text #2
  63. ID                                       : 4
  64. Format                                   : PGS
  65. Muxing mode                              : zlib
  66. Codec ID                                 : S_HDMV/PGS
  67. Codec ID/Info                            : Picture based subtitle format used on BDs/HD-DVDs
  68. Duration                                 : 7 h 18 min
  69. Bit rate                                 : 3 409 b/s
  70. Count of elements                        : 3830
  71. Stream size                              : 10.7 MiB (0%)
  72. Title                                    : English
  73. Language                                 : English
  74. Default                                  : No
  75. Forced                                   : No

  76. Menu
  77. 00:00:00.000                             : en:Chapter 1
  78. 00:21:22.666                             : en:Chapter 2
  79. 00:41:47.791                             : en:Chapter 3
  80. 01:01:07.000                             : en:Chapter 4
  81. 01:15:46.750                             : en:Chapter 5
  82. 01:54:09.541                             : en:Chapter 6
  83. 02:08:48.000                             : en:Chapter 7
  84. 02:17:25.000                             : en:Chapter 8
  85. 02:58:24.958                             : en:Chapter 9
  86. 03:18:40.916                             : en:Chapter 10
  87. 03:37:53.958                             : en:Chapter 11
  88. 03:57:29.833                             : en:Chapter 12
  89. 04:21:53.166                             : en:Chapter 13
  90. 04:39:51.166                             : en:Chapter 14
  91. 04:54:32.832                             : en:Chapter 15
  92. 05:08:07.749                             : en:Chapter 16
  93. 05:22:09.832                             : en:Chapter 17
  94. 05:34:24.041                             : en:Chapter 18
  95. 05:59:58.041                             : en:Chapter 19
  96. 06:14:44.082                             : en:Chapter 20
  97. 06:23:37.999                             : en:Chapter 21
  98. 06:49:11.291                             : en:Chapter 22
  99. 07:06:48.957                             : en:Chapter 23
  100. 07:13:54.957                             : en:Chapter 24
复制代码

撒旦探戈 Satantango.1994.720p.BluRay.x264-USURY 21.14GB-2.png







回复

使用道具 举报

蓝光币
630
发表于 2020-4-30 20:13:36 | 显示全部楼层
怎没资源?挂某雷是0!
回复 支持 反对

使用道具 举报

蓝光币
3738
发表于 2020-4-30 23:31:24 | 显示全部楼层
谢谢楼主分享
回复 支持 反对

使用道具 举报

蓝光币
380
发表于 2020-5-2 11:14:01 | 显示全部楼层

~ 珍惜+支持 ~
回复

使用道具 举报

懒得打字嘛,点击右侧快捷回复 【右侧内容,后台自定义】
您需要登录后才可以回帖 登录 | 立即加入

本版积分规则

Archiver|小黑屋| 蓝光电影网 |网站地图

Copyright © 2021 Comsenz Inc. Powered by 蓝光电影网

蓝光电影网

本站内容由用户自主分享和转载自互联网,转载目的在于传递更多信息,并不代表本网赞同其观点和对其真实性负责。

如有侵权、违反国家法律政策行为,请联系我们,我们会第一时间及时清除和处理!

举报反馈邮箱:[email protected]

快速回复 返回顶部 返回列表