找回密码

蓝光电影网

查看: 253|回复: 3

[剧情] 放射性物质/居里夫人:放射永恒 Radioactive.2019.1080p.WEB-DL.DD5.1.H264-FGT 3.80GB

[复制链接]
蓝光币
519
发表于 2020-5-1 10:43:40 | 显示全部楼层 |阅读模式
放射性物资/居里夫人:放射永久 Radioactive.2019.1080p.WEB-DL.DD5.1.H264-FGT 3.80GB-1.png

译  名 放射性物资 / 居里夫人:放射永久(台) / 放射性
片  名 Radioactive
年  代 2019
产  地 英国 / 匈牙利
类  别 剧情 / 列传
语  言 英语
上映日期 2019-09-14(多伦多电影节) / 2020-03-20(英国)
IMDb评分  6.1/10 from 299 users
IMDb链接  https://www.imdb.com/title/tt6017756
豆瓣评分 0/10 from 0 users
豆瓣链接 https://movie.douban.com/subject/26979354/
片  长 103分钟
导  演 玛嘉·莎塔琵 Marjane Satrapi
编  剧 杰克·索恩 Jack Thorne / Lauren Redniss
主  演 裴淳华 Rosamund Pike
       萨姆·赖利 Sam Riley
       安雅·泰勒-乔伊 Anya Taylor-Joy
       阿奈林·巴纳德 Aneurin Barnard
       乔纳森·阿里斯 Jonathan Aris
       西蒙·拉塞尔·比尔 Simon Russell Beale
       克里·约翰逊 Corey Johnson
       蒂姆·伍德沃德 Tim Woodward
       印迪卡·沃森 Indica Watson
       迪米特里·格里特萨斯 Demetri Goritsas
       Mirjam Novak
       弗兰西斯卡·托朗西斯科 Franciska T?r?csik
       迈克尔·古尔德 Michael Gould
       理查德·皮泼 Richard Pepple
       Mark C. Phelan


标  签 列传 | 裴淳华 | 剧情 | 2019 | 女性 | 美国 | 英国 | 电影

简  介  

  裴淳华主演的居里夫人列传片《放射性》(Radioactive)日前在布达佩斯开拍,亚马逊将与Studiocanal合作投资和刊行。玛嘉·莎塔碧(《我在伊朗长大》)执导,杰克·索恩(《奇迹男孩》《皮囊》)操刀剧本,基于Lauren Redniss所著小说《Marie & Pierre Curie: A Tale of Love and Fallout》,聚焦玛丽·居里和皮埃尔·居里夫妻对科学的摸索和两人之间的关系。
  1. Video
  2. ID                                       : 1
  3. Format                                   : AVC
  4. Format/Info                              : Advanced Video Codec
  5. Format profile                           : [email protected]
  6. Format settings                          : CABAC / 5 Ref Frames
  7. Format settings, CABAC                   : Yes
  8. Format settings, Reference frames        : 5 frames
  9. Codec ID                                 : V_MPEG4/ISO/AVC
  10. Duration                                 : 1 h 49 min
  11. Bit rate                                 : 4 573 kb/s
  12. Width                                    : 1 912 pixels
  13. Height                                   : 796 pixels
  14. Display aspect ratio                     : 2.40:1
  15. Frame rate mode                          : Constant
  16. Frame rate                               : 24.000 FPS
  17. Color space                              : YUV
  18. Chroma subsampling                       : 4:2:0
  19. Bit depth                                : 8 bits
  20. Scan type                                : Progressive
  21. Bits/(Pixel*Frame)                       : 0.125
  22. Stream size                              : 3.50 GiB (92%)
  23. Title                                    : Radioactive.2019.1080p.WEB-DL.DD5.1.H264-FGT
  24. Language                                 : English
  25. Default                                  : Yes
  26. Forced                                   : No
  27. Color range                              : Limited
  28. Color primaries                          : BT.709
  29. Transfer characteristics                 : BT.709
  30. Matrix coefficients                      : BT.709

  31. Audio
  32. ID                                       : 2
  33. Format                                   : AC-3
  34. Format/Info                              : Audio Coding 3
  35. Commercial name                          : Dolby Digital
  36. Codec ID                                 : A_AC3
  37. Duration                                 : 1 h 49 min
  38. Bit rate mode                            : Constant
  39. Bit rate                                 : 384 kb/s
  40. Channel(s)                               : 6 channels
  41. Channel layout                           : L R C LFE Ls Rs
  42. Sampling rate                            : 48.0 kHz
  43. Frame rate                               : 31.250 FPS (1536 SPF)
  44. Bit depth                                : 16 bits
  45. Compression mode                         : Lossy
  46. Stream size                              : 301 MiB (8%)
  47. Title                                    : Radioactive.2019.1080p.WEB-DL.DD5.1.H264-FGT
  48. Language                                 : English
  49. Service kind                             : Complete Main
  50. Default                                  : Yes
  51. Forced                                   : No
复制代码

放射性物资/居里夫人:放射永久 Radioactive.2019.1080p.WEB-DL.DD5.1.H264-FGT 3.80GB-2.png 放射性物资/居里夫人:放射永久 Radioactive.2019.1080p.WEB-DL.DD5.1.H264-FGT 3.80GB-3.png 放射性物资/居里夫人:放射永久 Radioactive.2019.1080p.WEB-DL.DD5.1.H264-FGT 3.80GB-4.png







回复

使用道具 举报

懒得打字嘛,点击右侧快捷回复 【右侧内容,后台自定义】
您需要登录后才可以回帖 登录 | 立即加入

本版积分规则

Archiver|小黑屋| 蓝光电影网 |网站地图

Copyright © 2021 Comsenz Inc. Powered by 蓝光电影网

蓝光电影网

本站内容由用户自主分享和转载自互联网,转载目的在于传递更多信息,并不代表本网赞同其观点和对其真实性负责。

如有侵权、违反国家法律政策行为,请联系我们,我们会第一时间及时清除和处理!

举报反馈邮箱:[email protected]

快速回复 返回顶部 返回列表